Enter Here To DownLoad Bangla Muzic Video
#1792530
Image


* এই প্রথমবারের মত *
~ ভিডিওতে পূর্ণাঙ্গ বাংলা সাবটাইটেল সহ ~


* Music Video *

Roser Thilla-Item Song [Amader Golpo-2012] - DVDRip - 720p - AVC - DTS.rM 5Ch - Ben Subs [HD]


Image

Image

Image

Image

Image

Image

Image

Image

Image

Image

Image

Image

Image

Image

Image

Video

ID : 1
Format : AVC
Format/Info : Advanced Video Codec
Format profile : High@L4.1
Format settings, CABAC : Yes
Format settings, ReFrames : 3 frames
Frame mode : Frame doubling
Codec ID : V_MPEG4/ISO/AVC
Duration : 2mn 34s
Bit rate mode : Variable
Bit rate : 3 000 Kbps
Maximum bit rate : 14.0 Mbps
Width : 1 280 pixels
Height : 720 pixels
Display aspect ratio : 16:9
Frame rate : 25.000 fps
Color space : YUV
Chroma subsampling : 4:2:0
Bit depth : 8 bits
Scan type : Progressive
Bits/(Pixel*Frame) : 0.130
Stream size : 53.9 MiB (78%)

Audio

ID : 2
Format : DTS
Format/Info : Digital Theater Systems
Codec ID : A_DTS
Duration : 2mn 34s
Bit rate mode : Constant
Bit rate : 755 Kbps
Channel(s) : 5 channels
Channel positions : Front: L C R, Side: L R
Sampling rate : 48.0 KHz
Bit depth : 24 bits
Compression mode : Lossy
Stream size : 13.9 MiB (20%)

Audio Language: Local language of Chittagong, Bangladesh

Subtitles: Muxed
Subtitle Language: Bengali
Subtitle Created & Synchronized By AvijatriK

Ripper: AvijatriK

Ripper Note:

It has been ripped from a Retail DVD source. But actually it's a damn source. The source was full of noise, foggy, somewhere very dark & heavily Interlaced. Ripping from this type of source is just a pain... =((

Actually the source audio was not DTS. It has been ripped/re-Mastered from a 2ch audio. It's a plain DTS. DTS-rM is not a (TM) like DTS-MA. I've just used the word "rM" in the title so people can easily identify. The audio Bass is ok & quality is fine.


Image
Image
Please Login / Register to view the Link


Image
Please Login / Register to view the Link


Image
Please Login / Register to view the Link


Image
Image
#1804121
* এই প্রথমবারের মত *
~ ভিডিওতে পূর্ণাঙ্গ বাংলা সাবটাইটেল সহ ~

chorom moja paisi.... :P