Download Hindi Movies, Download Hindi Movie, Download hindi Movie free, Download Hindi Movies Free, Download Hindi Dvd Movie
#4701311
Tubelight (2017) - 2CD - HDTV - Rip
[x264 - AAC3(5.1Ch)]

Image
Image
[Image
Image
Image

Plot: In a small picturesque town in North India, Laxman (Salman Khan) lives with his younger brother Bharat (Sohail Khan). The two have no other family and are inseparable. Laxman's world comes crashing down, when war breaks out and Bharat gets drafted into the Army. A helpless Bharat leaves a devastated Laxman behind. News from the border only worsens, as the tension continues to escalate. Seeing the carnage around him and worried for his brother, Laxman decides he must stop this conflict and get his brother back.

Actors: Salman Khan, Sohail Khan, Om Puri, Mohammed Zeeshan Ayyub

Code: 
Please Login / Register to view the Link
General
Format                                   : Matroska
Format version                           : Version 2
File size                                : 1.40 GiB
Duration                                 : 2 h 33 min

Video
ID                                       : 1
Format                                   : AVC
Format/Info                              : Advanced Video Codec
Format profile                           : High@L3.1
Format settings                          : CABAC / 16 Ref Frames
Format settings, CABAC                   : Yes
Format settings, RefFrames               : 16 frames
Codec ID                                 : V_MPEG4/ISO/AVC
Duration                                 : 2 h 33 min
Bit rate                                 : 1 178 kb/s
Width                                    : 720 pixels
Height                                   : 304 pixels
Display aspect ratio                     : 2.35:1
Frame rate mode                          : Constant
Frame rate                               : 25.000 FPS
Color space                              : YUV
Chroma subsampling                       : 4:2:0
Bit depth                                : 8 bits
Scan type                                : Progressive
Bits/(Pixel*Frame)                       : 0.215
Stream size                              : 1.26 GiB (90%)

Audio
ID                                       : 2
Format                                   : AAC
Format/Info                              : Advanced Audio Codec
Format profile                           : HE-AAC / LC
Format settings                          : Explicit
Codec ID                                 : A_AAC-2
Duration                                 : 2 h 33 min
Bit rate                                 : 128 kb/s
Channel(s)                               : 6 channels
Channel positions                        : Front: L C R, Side: L R, LFE
Sampling rate                            : 48.0 kHz
Stream size                              : 140 MiB (10%)

Thumbnail
Image
Image
Image
Image

Image
LINKS ARE INTERCHANGEABLE

Please Login / Register to view the Link

Please Login / Register to view the Link

OR
Please Login / Register to view the Link

Please Login / Register to view the Link

OR
Please Login / Register to view the Link

Please Login / Register to view the Link
By Advertisement Bot
#...?