Download Hindi Movies, Download Hindi Movie, Download hindi Movie free, Download Hindi Movies Free, Download Hindi Dvd Movie
#4696303
Judwaa 2 (2017) - Pre DvDScr Rip -
857 - Mpeg

Image
Image
Image
Image
Image

Code: 
Please Login / Register to view the Link
General
Format                                   : MPEG-PS
File size                                : 858 MiB
Duration                                 : 2 h 47 min

Video
ID                                       : 224 (0xE0)
Format                                   : MPEG Video
Format version                           : Version 2
Format profile                           : Main@Low
Format settings                          : CustomMatrix / BVOP
Format settings, BVOP                    : Yes
Format settings, Matrix                  : Custom
Format settings, GOP                     : Variable
Duration                                 : 2 h 47 min
Bit rate mode                            : Constant
Bit rate                                 : 640 kb/s
Width                                    : 352 pixels
Height                                   : 288 pixels
Display aspect ratio                     : 4:3
Frame rate                               : 25.000 FPS
Standard                                 : PAL
Color space                              : YUV
Chroma subsampling                       : 4:2:0
Bit depth                                : 8 bits
Scan type                                : Progressive
Stream size                              : 764 MiB (89%)

Audio
ID                                       : 192 (0xC0)
Format                                   : MPEG Audio
Format version                           : Version 1
Format profile                           : Layer 2
Duration                                 : 2 h 47 min
Bit rate mode                            : Constant
Bit rate                                 : 64.0 kb/s
Channel(s)                               : 2 channels
Sampling rate                            : 48.0 kHz
Compression mode                         : Lossy
Stream size                              : 76.9 MiB (9%)

Thumbnail
Image
Image
Image

Image
Please Login / Register to view the Link

Please Login / Register to view the Link

Please Login / Register to view the Link
By Advertisement Bot
#...?