#2679478
Dragon ball Z-History of Trunks (Eng Dub) 360P AVC AAC 202MB
.......................................................................


Image


Image


Please Login / Register to view the Link



Complete name..............: Dragon ball Z-History of Trunks (Eng Dub) 360P AVC AAC 202MB[Doridro.com].mp4
Format........................: MPEG-4
Format profile...............: Base Media / Version 2
Codec ID............................: mp42
File size...................: 203 MiB
Duration..............................: 47mn 55s
Overall bit rate mode.........................: Variable
Overall bit rate....................: 591 Kbps


Video
ID : 1
Format : AVC
Format/Info : Advanced Video Codec
Format profile : Baseline@L3
Format settings, CABAC : No
Format settings, ReFrames : 1 frame
Codec ID : avc1
Codec ID/Info : Advanced Video Coding
Duration : 47mn 55s
Bit rate : 493 Kbps
Maximum bit rate : 2 147 Kbps
Width : 640 pixels
Height : 360 pixels
Display aspect ratio : 16:9
Frame rate mode : Constant
Frame rate : 23.976 fps
Color space : YUV
Chroma subsampling : 4:2:0
Bit depth : 8 bits
Scan type : Progressive
Bits/(Pixel*Frame) : 0.089
Stream size : 169 MiB (83%)
Encoded date : UTC 1970-01-01 00:00:00
Tagged date : UTC 2015-04-06 11:49:20


Audio
ID : 2
Format : AAC
Format/Info : Advanced Audio Codec
Format profile : LC
Codec ID : 40
Duration : 47mn 55s
Bit rate mode : Variable
Bit rate : 96.0 Kbps
Maximum bit rate : 102 Kbps
Channel(s) : 2 channels
Channel positions : Front: L R
Sampling rate : 44.1 KHz
Compression mode : Lossy
Stream size : 32.9 MiB (16%)
Title : IsoMedia File Produced by Google, 5-11-2011
Language : English
Encoded date : UTC 2015-04-06 11:49:16
Tagged date : UTC 2015-04-06 11:49:20






Image

Image



Image



....................................................


Please Login / Register to view the Link

Please Login / Register to view the Link

Please Login / Register to view the Link

Please Login / Register to view the Link

Please Login / Register to view the Link



....................................................

By Advertisement Bot
#...?
By Edwardhit
#4584598
REMOVED
Last edited by V3GITA on 10 Aug 2017, 01:56, edited 1 time in total. Reason: Link of another website