Enter Here To Download Bangla Drama Serials
#2525364
Image

Image

===========================================================

Video
ID : 1
Format : AVC
Format/Info : Advanced Video Codec
Format profile : High@L2.2
Format settings, CABAC : Yes
Format settings, ReFrames : 16 frames
Codec ID : V_MPEG4/ISO/AVC
Duration : 20mn 25s
Bit rate : 1 000 Kbps
Width : 480 pixels
Height : 256 pixels
Display aspect ratio : 1.85:1
Frame rate mode : Constant
Frame rate : 25.000 fps
Color space : YUV
Chroma subsampling : 4:2:0
Bit depth : 8 bits
Scan type : Progressive
Bits/(Pixel*Frame) : 0.326
Stream size : 143 MiB (87%)
Default : Yes
Forced : No

Audio
ID : 2
Format : AC-3
Format/Info : Audio Coding 3
Mode extension : CM (complete main)
Format settings, Endianness : Big
Codec ID : A_AC3
Duration : 20mn 25s
Bit rate mode : Constant
Bit rate : 128 Kbps
Channel(s) : 2 channels
Channel positions : Front: L R
Sampling rate : 48.0 KHz
Bit depth : 16 bits
Compression mode : Lossy
Stream size : 18.7 MiB (11%)
Default : Yes
Forced : No

===========================================================


Image
Image

Image

Image

Image

Image

Image
Image
Image
>>> Xfileload <<<

Please Login / Register to view the Link


>>> Arabloads <<<

Please Login / Register to view the Link


>>> Indishare <<<

Please Login / Register to view the Link









Image
Image
By Advertisement Bot
#...?