Page 1 of 1

Tiger Zinda Hai (2017) 720p BluRay x264 1GB MKV

PostPosted:10 Feb 2018, 21:44
by 666:Satan
>>>Tiger Zinda Hai (2017) 720p BluRay x264 1GB MKV<<<

Image

iNFORMATION
Please Login / Register to view the Link

File: tiger.mkv
Size: 1150663044 bytes (1.07 GiB), duration: 02:40:02, avg.bitrate: 959 kb/s
Audio: aac, 48000 Hz, stereo (hin)
Video: h264, yuv420p, 1280x544, 24.00 fps(r)
Source: DTOne
Language: Hindi
Uploader : 666:Satan

....................................................
Doridro Entertainment Team [DET]


SCREENSHOTS
Image
Image
Image
Image

DOWNLOAD LiNKS
......................................................................................
Direct Link:
...

UP-4Ever:
Please Login / Register to view the Link


Arabloads:
Please Login / Register to view the Link


Openload:
...

.:.....................................................................................:.


Re: Tiger Zinda Hai (2017) 720p BluRay x264 1GB MKV

PostPosted:12 Feb 2018, 08:28
by goodboy2013
not working

Karvva South Indian Movies Dubbed In Hindi Full Movie 2017 New Indian Movie TNT

PostPosted:15 Feb 2018, 20:58
by sohel_mogha
Karvva - South Indian Movies Dubbed In Hindi Full Movie 2017 New - Indian Movie - साउथ मूवी

Image

Image

Image


Image


Code: 
Please Login / Register to view the Link
General
Complete name                            : Karvva - South Indian Movies Dubbed In Hindi Full Movie 2017 New - Indian Movie - साउथ मूवी.mp4
Format                                   : MPEG-4
Format profile                           : Base Media
Codec ID                                 : isom (isom/iso2/avc1/mp41)
File size                                : 857 MiB
Duration                                 : 1 h 43 min
Overall bit rate mode                    : Variable
Overall bit rate                         : 1 158 kb/s
Encoded date                             : UTC 2017-12-01 06:28:05
Tagged date                              : UTC 2017-12-01 06:28:05

Video
ID                                       : 1
Format                                   : AVC
Format/Info                              : Advanced Video Codec
Format profile                           : High@L4
Format settings                          : CABAC / 3 Ref Frames
Format settings, CABAC                   : Yes
Format settings, RefFrames               : 3 frames
Codec ID                                 : avc1
Codec ID/Info                            : Advanced Video Coding
Duration                                 : 1 h 43 min
Bit rate                                 : 1 029 kb/s
Width                                    : 1 920 pixels
Height                                   : 1 080 pixels
Display aspect ratio                     : 16:9
Frame rate mode                          : Constant
Frame rate                               : 24.038 FPS
Color space                              : YUV
Chroma subsampling                       : 4:2:0
Bit depth                                : 8 bits
Scan type                                : Progressive
Bits/(Pixel*Frame)                       : 0.021
Stream size                              : 762 MiB (89%)
Encoded date                             : UTC 2017-12-01 06:28:05
Tagged date                              : UTC 2017-12-01 06:28:05
Color range                              : Limited
Color primaries                          : BT.709
Transfer characteristics                 : BT.709
Matrix coefficients                      : BT.709

Audio
ID                                       : 2
Format                                   : AAC
Format/Info                              : Advanced Audio Codec
Format profile                           : LC
Codec ID                                 : mp4a-40-2
Duration                                 : 1 h 43 min
Bit rate mode                            : Variable
Bit rate                                 : 126 kb/s
Channel(s)                               : 2 channels
Channel positions                        : Front: L R
Sampling rate                            : 44.1 kHz
Frame rate                               : 43.066 FPS (1024 SPF)
Compression mode                         : Lossy
Stream size                              : 93.0 MiB (11%)
Default                                  : Yes
Alternate group                          : 1
Encoded date                             : UTC 2017-12-01 06:12:32
Tagged date                              : UTC 2017-12-01 06:12:32


Image

Image

Image

Image
Image

Download Here

Please Login / Register to view the Link

Re: APPLY FOR UPLOADER RANK

PostPosted:17 Feb 2018, 13:26
by sohel_mogha
APPLY FOR UPLOADER RANK

Name :- sohel_mogha
Country :- Bangladesh
location :- Chittagong City
Work :- Video Editor



Please Login / Register to view the Link

Please Login / Register to view the Link