Download Hindi Movies, Download Hindi Movie, Download hindi Movie free, Download Hindi Movies Free, Download Hindi Dvd Movie
#4593629
Jab Harry met Sejal (2017) - Pre DvDScr Rip
[x264 - AAC3(2Ch)] - 850 MB

Image
Image
Image
Image

Code: 
Please Login / Register to view the Link
General
Format                                   : Matroska
Format version                           : Version 2
File size                                : 849 MiB
Duration                                 : 2 h 47 min

Video
ID                                       : 1
Format                                   : AVC
Format/Info                              : Advanced Video Codec
Format profile                           : High@L2.1
Format settings, CABAC                   : Yes
Format settings, RefFrames               : 4 frames
Codec ID                                 : V_MPEG4/ISO/AVC
Duration                                 : 2 h 47 min
Bit rate                                 : 627 kb/s
Width                                    : 560 pixels
Height                                   : 248 pixels
Display aspect ratio                     : 2.25:1
Frame rate mode                          : Constant
Frame rate                               : 25.000 FPS
Color space                              : YUV
Chroma subsampling                       : 4:2:0
Bit depth                                : 8 bits
Scan type                                : Progressive
Bits/(Pixel*Frame)                       : 0.181
Stream size                              : 751 MiB (88%)

Audio
ID                                       : 2
Format                                   : AAC
Format/Info                              : Advanced Audio Codec
Format profile                           : HE-AAC / LC
Codec ID                                 : A_AAC
Duration                                 : 2 h 47 min
Bit rate                                 : 80.0 kb/s
Channel(s)                               : 2 channels
Channel positions                        : Front: L R
Sampling rate                            : 48.0 kHz / 24.0 kHz
Stream size                              : 95.9 MiB (11%)

Thumbnail

Image
Image
Image
Image

Image
Please Login / Register to view the Link

Please Login / Register to view the Link

Please Login / Register to view the Link

Please Login / Register to view the Link

Please Login / Register to view the Link

Please Login / Register to view the Link
By Advertisement Bot
#...?