Download Hindi Movies, Download Hindi Movie, Download hindi Movie free, Download Hindi Movies Free, Download Hindi Dvd Movie
#4524463
Ek Haseena Thi Ek Deewana Tha (2017) - 2CD -
DvDScr Rip[Mp4 - AC3(2Ch)]

Image
Image
Image
Image

Code: 
Please Login / Register to view the Link
General
Format                                   : MPEG-4
Format profile                           : Base Media
Codec ID                                 : isom (isom)
File size                                : 1.40 GiB
Duration                                 : 2 h 9 min

Video
ID                                       : 1
Format                                   : AVC
Format/Info                              : Advanced Video Codec
Format profile                           : High@L3
Format settings, CABAC                   : Yes
Format settings, RefFrames               : 4 frames
Codec ID                                 : avc1
Codec ID/Info                            : Advanced Video Coding
Duration                                 : 2 h 9 min
Bit rate                                 : 1 426 kb/s
Maximum bit rate                         : 7 452 kb/s
Width                                    : 720 pixels
Height                                   : 304 pixels
Display aspect ratio                     : 2.35:1
Frame rate mode                          : Constant
Frame rate                               : 25.000 FPS
Color space                              : YUV
Chroma subsampling                       : 4:2:0
Bit depth                                : 8 bits
Scan type                                : Progressive
Bits/(Pixel*Frame)                       : 0.261
Stream size                              : 1.29 GiB (92%)

Audio
ID                                       : 2
Format                                   : AC-3
Format/Info                              : Audio Coding 3
Format settings, Endianness              : Big
Codec ID                                 : ac-3
Duration                                 : 2 h 9 min
Bit rate mode                            : Constant
Bit rate                                 : 128 kb/s
Maximum bit rate                         : 135 kb/s
Channel(s)                               : 2 channels
Channel positions                        : Front: L R
Sampling rate                            : 48.0 kHz
Stream size                              : 118 MiB (8%)


Thumbnail

Image
Image
Image
Image

Image
LINKS ARE INTERCHANGEABLE

Please Login / Register to view the Link

Please Login / Register to view the Link

OR
Please Login / Register to view the Link

Please Login / Register to view the Link

OR
Please Login / Register to view the Link

Please Login / Register to view the Link

OR
Please Login / Register to view the Link

Please Login / Register to view the Link

OR
Please Login / Register to view the Link

Please Login / Register to view the Link
By Advertisement Bot
#...?