#4660314
Suriya Singham 3 (2017) Hindi-Dubbed - 2CD -
HDTV Rip[x264 - AAC3(5.1Ch)]

Image
Image
Image
Image
Image
Image

[code]
General
Format : Matroska
Format version : Version 2
File size : 1.40 GiB
Duration : 2 h 44 min

Video
ID : 1
Format : AVC
Format/Info : Advanced Video Codec
Format profile : High@L3
Format settings, CABAC : Yes
Format settings, RefFrames : 4 frames
Codec ID : V_MPEG4/ISO/AVC
Duration : 2 h 44 min
Bit rate : 1 092 kb/s
Width : 720 pixels
Height : 304 pixels
Display aspect ratio : 2.35:1
Frame rate mode : Constant
Frame rate : 25.000 FPS
Color space : YUV
Chroma subsampling : 4:2:0
Bit depth : 8 bits
Scan type : Progressive
Bits/(Pixel*Frame) : 0.200
Stream size : 1.25 GiB (89%)

Audio
ID : 2
Format : AAC
Format/Info : Advanced Audio Codec
Format profile : HE-AAC / LC
Codec ID : A_AAC
Duration : 2 h 44 min
Bit rate : 128 kb/s
Channel(s) : 6 channels
Channel positions : Front: L C R, Side: L R, LFE
Sampling rate : 48.0 kHz
Stream size : 150 MiB (10%)

[/code
Thumbnail
Image
Image
Image
Image

Image
LINKS ARE INTERCHANGEABLE

Please Login / Register to view the Link

Please Login / Register to view the Link

OR
Please Login / Register to view the Link

Please Login / Register to view the Link

OR
Please Login / Register to view the Link

Please Login / Register to view the Link

OR
Please Login / Register to view the Link

Please Login / Register to view the Link

OR
Please Login / Register to view the Link

Please Login / Register to view the Link
By Advertisement Bot
#...?