#4787983
Image




Code: 
Please Login / Register to view the Link
General
Format                      : Matroska
Format version              : Version 4 / Version 2
File size                   : 3.47 GiB
Duration                    : 2 h 16 min
Overall bit rate            : 3 629 kb/s
Encoded date                : UTC 2017-11-10 01:08:10
Writing application         : mkvmerge v7.8.0 ('River Man') 64bit built on Mar 27 2015 16:31:37
Writing library             : libebml v1.3.1 + libmatroska v1.4.2

Video
ID                          : 1
Format                      : AVC
Format/Info                 : Advanced Video Codec
Format profile              : High@L3.2
Format settings, CABAC      : Yes
Format settings, RefFrames  : 4 frames
Codec ID                    : V_MPEG4/ISO/AVC
Duration                    : 2 h 16 min
Bit rate                    : 3 467 kb/s
Width                       : 1 696 pixels
Height                      : 720 pixels
Display aspect ratio        : 2.35:1
Frame rate mode             : Constant
Frame rate                  : 25.000 FPS
Color space                 : YUV
Chroma subsampling          : 4:2:0
Bit depth                   : 8 bits
Scan type                   : Progressive
Bits/(Pixel*Frame)          : 0.114
Stream size                 : 3.32 GiB (96%)
Writing library             : x264 core 148 r2744 b97ae06
Encoding settings           : cabac=1 / ref=3 / deblock=1:0:0 / analyse=0x3:0x113 / me=hex / subme=7 / psy=1 / psy_rd=1.00:0.00 / mixed_ref=1 / me_range=16 / chroma_me=1 / trellis=1 / 8x8dct=1 / cqm=0 / deadzone=21,11 / fast_pskip=1 / chroma_qp_offset=-2 / threads=22 / lookahead_threads=3 / sliced_threads=0 / nr=0 / decimate=1 / interlaced=0 / bluray_compat=0 / constrained_intra=0 / bframes=3 / b_pyramid=2 / b_adapt=1 / b_bias=0 / direct=1 / weightb=1 / open_gop=0 / weightp=2 / keyint=250 / keyint_min=25 / scenecut=40 / intra_refresh=0 / rc_lookahead=40 / rc=2pass / mbtree=1 / bitrate=3467 / ratetol=1.0 / qcomp=0.60 / qpmin=0 / qpmax=69 / qpstep=4 / cplxblur=20.0 / qblur=0.5 / ip_ratio=1.40 / aq=1:1.00
Language                    : English
Default                     : Yes
Forced                      : No

Audio
ID                          : 2
Format                      : AC-3
Format/Info                 : Audio Coding 3
Format settings, Endianness : Big
Codec ID                    : A_AC3
Duration                    : 2 h 16 min
Bit rate mode               : Constant
Bit rate                    : 160 kb/s
Channel(s)                  : 6 channels
Channel positions           : Front: L C R, Side: L R, LFE
Sampling rate               : 44.1 kHz
Frame rate                  : 28.711 FPS (1536 SPF)
Bit depth                   : 16 bits
Compression mode            : Lossy
Stream size                 : 157 MiB (4%)
Language                    : English
Service kind                : Complete Main
Default                     : Yes
Forced                      : No




ImageImageImageImage



SINGLE DIRECT FAST LINKS
Code: 
Please Login / Register to view the Link
http://www.heroupload.com/02ac67ab3e12956e/Karuppan.2017.1080p.HD.AVC.x264.DD.5.1.Tamil-MTR.mkv


Code: 
Please Login / Register to view the Link
http://filefloater.com/6zp/Karuppan.2017.1080p.HD.AVC.x264.DD.5.1.Tamil-MTR.mkv

1GB LINKS
Code: 
Please Login / Register to view the Link
http://www.heroupload.com/fda1e13511967f00/Karuppan.2017.1080p.HD.AVC.x264.DD.5.1.Tamil-MTR.part1.rar
http://www.heroupload.com/c7688630ad5790d2/Karuppan.2017.1080p.HD.AVC.x264.DD.5.1.Tamil-MTR.part2.rar
http://www.heroupload.com/0e1bdba744bb3e67/Karuppan.2017.1080p.HD.AVC.x264.DD.5.1.Tamil-MTR.part3.rar
http://www.heroupload.com/68e0111cdc0180c8/Karuppan.2017.1080p.HD.AVC.x264.DD.5.1.Tamil-MTR.part4.rar


Code: 
Please Login / Register to view the Link
http://filefloater.com/6zq/Karuppan.2017.1080p.HD.AVC.x264.DD.5.1.Tamil-MTR.part1.rar
http://filefloater.com/6zr/Karuppan.2017.1080p.HD.AVC.x264.DD.5.1.Tamil-MTR.part2.rar
http://filefloater.com/6zs/Karuppan.2017.1080p.HD.AVC.x264.DD.5.1.Tamil-MTR.part3.rar
http://filefloater.com/6zt/Karuppan.2017.1080p.HD.AVC.x264.DD.5.1.Tamil-MTR.part4.rar
By Advertisement Bot
#...?