#4787973
Image




Code: 
Please Login / Register to view the Link
General
Format                      : AVI
Format/Info                 : Audio Video Interleave
File size                   : 710 MiB
Duration                    : 2 h 16 min
Overall bit rate            : 724 kb/s

Video
ID                          : 0
Format                      : MPEG-4 Visual
Format profile              : Advanced Simple@L5
Format settings, BVOP       : 2
Format settings, QPel       : No
Format settings, GMC        : No warppoints
Format settings, Matrix     : Default (H.263)
Codec ID                    : XVID
Codec ID/Hint               : XviD
Duration                    : 2 h 16 min
Bit rate                    : 622 kb/s
Width                       : 608 pixels
Height                      : 256 pixels
Display aspect ratio        : 2.40:1
Frame rate                  : 25.000 FPS
Color space                 : YUV
Chroma subsampling          : 4:2:0
Bit depth                   : 8 bits
Scan type                   : Progressive
Compression mode            : Lossy
Bits/(Pixel*Frame)          : 0.160
Stream size                 : 610 MiB (86%)
Writing library             : XviD 67

Audio
ID                          : 1
Format                      : MPEG Audio
Format version              : Version 1
Format profile              : Layer 3
Mode                        : Joint stereo
Mode extension              : MS Stereo
Codec ID                    : 55
Codec ID/Hint               : MP3
Duration                    : 2 h 16 min
Bit rate mode               : Constant
Bit rate                    : 96.0 kb/s
Channel(s)                  : 2 channels
Sampling rate               : 48.0 kHz
Compression mode            : Lossy
Stream size                 : 94.0 MiB (13%)
Alignment                   : Aligned on interleaves
Interleave, duration        : 160  ms (4.00 video frames)
Interleave, preload duratio : 216  ms
Title                       : Karuppan



ImageImageImageImageImage


SINGLE DIRECT FAST LINKS
Code: 
Please Login / Register to view the Link
http://www.heroupload.com/1f3e2c956e3c36d4/Karuppan.2017.HDRip.XviD.MP3.700MB.Tamil-MTR.avi


Code: 
Please Login / Register to view the Link
http://filefloater.com/6zu/Karuppan.2017.HDRip.XviD.MP3.700MB.Tamil-MTR.avi
By Advertisement Bot
#...?