#4787967
Image



Code: 
Please Login / Register to view the Link
Format                      : MPEG-4
Codec ID                    : M4V  (isom/avc1/mp42)
File size                   : 5.51 GiB
Duration                    : 2 h 25 min
Overall bit rate mode       : Variable
Overall bit rate            : 5 423 kb/s
Encoded date                : UTC 2017-11-08 13:40:54
Tagged date                 : UTC 2017-11-08 13:40:54

Video
ID                          : 1
Format                      : AVC
Format/Info                 : Advanced Video Codec
Format profile              : Main@L5.1
Format settings, CABAC      : Yes
Format settings, RefFrames  : 2 frames
Format settings, GOP        : M=3, N=90
Codec ID                    : avc1
Codec ID/Info               : Advanced Video Coding
Duration                    : 2 h 25 min
Bit rate mode               : Constant
Bit rate                    : 5 000 kb/s
Maximum bit rate            : 11.8 Mb/s
Width                       : 3 840 pixels
Height                      : 2 160 pixels
Display aspect ratio        : 16:9
Frame rate mode             : Constant
Frame rate                  : 24.000 FPS
Color space                 : YUV
Chroma subsampling          : 4:2:0
Bit depth                   : 8 bits
Scan type                   : Progressive
Bits/(Pixel*Frame)          : 0.025
Stream size                 : 5.08 GiB (92%)
Encoded date                : UTC 2017-11-08 13:40:54
Tagged date                 : UTC 2017-11-08 13:40:54

Audio #1
ID                          : 2
Format                      : AAC
Format/Info                 : Advanced Audio Codec
Format profile              : LC
Codec ID                    : 40
Duration                    : 2 h 25 min
Bit rate mode               : Variable
Bit rate                    : 96.0 kb/s
Maximum bit rate            : 99.8 kb/s
Channel(s)                  : 2 channels
Channel positions           : Front: L R
Sampling rate               : 48.0 kHz
Frame rate                  : 46.875 FPS (1024 SPF)
Compression mode            : Lossy
Stream size                 : 97.2 MiB (2%)
Language                    : English
Encoded date                : UTC 2017-11-08 13:40:54
Tagged date                 : UTC 2017-11-08 13:40:54

Audio #2
ID                          : 3
Format                      : AC-3
Format/Info                 : Audio Coding 3
Format settings, Endianness : Big
Codec ID                    : ac-3
Duration                    : 2 h 25 min
Bit rate mode               : Constant
Bit rate                    : 320 kb/s
Channel(s)                  : 6 channels
Channel positions           : Front: L C R, Side: L R, LFE
Sampling rate               : 48.0 kHz
Frame rate                  : 31.250 FPS (1536 SPF)
Bit depth                   : 16 bits
Compression mode            : Lossy
Stream size                 : 333 MiB (6%)
Language                    : English
Service kind                : Complete Main
Encoded date                : UTC 2017-11-08 13:40:54
Tagged date                 : UTC 2017-11-08 13:40:54



ImageImageImageImage


SINGLE DIRECT FAST LINKS
Code: 
Please Login / Register to view the Link
http://www.heroupload.com/f6c41aa6fb3c891f/Meyaadha.Maan.2017.4K.Untouched.UHD.MP4.Tamil-MTR.mp4


Code: 
Please Login / Register to view the Link
http://filefloater.com/6zv/Meyaadha.Maan.2017.4K.Untouched.UHD.MP4.Tamil-MTR.mp4

1GB LINKS
Code: 
Please Login / Register to view the Link
http://www.heroupload.com/6776a97adfebc5e4/Meyaadha.Maan.2017.4K.Untouched.UHD.MP4.Tamil-MTR.part1.rar
http://www.heroupload.com/26133483ac3395e1/Meyaadha.Maan.2017.4K.Untouched.UHD.MP4.Tamil-MTR.part2.rar
http://www.heroupload.com/1323a9cb381aa7e2/Meyaadha.Maan.2017.4K.Untouched.UHD.MP4.Tamil-MTR.part3.rar
http://www.heroupload.com/68acd7159779fc64/Meyaadha.Maan.2017.4K.Untouched.UHD.MP4.Tamil-MTR.part4.rar
http://www.heroupload.com/12e451a682407272/Meyaadha.Maan.2017.4K.Untouched.UHD.MP4.Tamil-MTR.part5.rar
http://www.heroupload.com/f43cac2c67d4298a/Meyaadha.Maan.2017.4K.Untouched.UHD.MP4.Tamil-MTR.part6.rar


Code: 
Please Login / Register to view the Link
http://filefloater.com/6zw/Meyaadha.Maan.2017.4K.Untouched.UHD.MP4.Tamil-MTR.part1.rar
http://filefloater.com/6zx/Meyaadha.Maan.2017.4K.Untouched.UHD.MP4.Tamil-MTR.part2.rar
http://filefloater.com/6zy/Meyaadha.Maan.2017.4K.Untouched.UHD.MP4.Tamil-MTR.part3.rar
http://filefloater.com/6zz/Meyaadha.Maan.2017.4K.Untouched.UHD.MP4.Tamil-MTR.part4.rar
http://filefloater.com/9aS/Meyaadha.Maan.2017.4K.Untouched.UHD.MP4.Tamil-MTR.part5.rar
http://filefloater.com/9aT/Meyaadha.Maan.2017.4K.Untouched.UHD.MP4.Tamil-MTR.part6.rar
By Advertisement Bot
#...?