#4787947
Image




Code: 
Please Login / Register to view the Link
General
Format                      : MPEG-4
Format profile              : Base Media
Codec ID                    : isom (isom)
File size                   : 4.42 GiB
Duration                    : 2 h 25 min
Overall bit rate mode       : Variable
Overall bit rate            : 4 347 kb/s
Encoded date                : UTC 2017-11-09 18:23:53
Tagged date                 : UTC 2017-11-09 18:23:53
Writing application         : MkvToMp4 [www.mkvtomp4.ru] version 0.224 (x64)

Video
ID                          : 1
Format                      : AVC
Format/Info                 : Advanced Video Codec
Format profile              : High@L4
Format settings, CABAC      : Yes
Format settings, RefFrames  : 3 frames
Format settings, GOP        : M=4, N=90
Codec ID                    : avc1
Codec ID/Info               : Advanced Video Coding
Duration                    : 2 h 25 min
Source duration             : 2 h 25 min
Bit rate mode               : Constant
Bit rate                    : 4 250 kb/s
Maximum bit rate            : 8 030 kb/s
Width                       : 1 920 pixels
Height                      : 1 080 pixels
Display aspect ratio        : 16:9
Frame rate mode             : Constant
Frame rate                  : 29.970 (30000/1001) FPS
Color space                 : YUV
Chroma subsampling          : 4:2:0
Bit depth                   : 8 bits
Scan type                   : Progressive
Bits/(Pixel*Frame)          : 0.068
Stream size                 : 4.14 GiB (94%)
Source stream size          : 4.32 GiB (98%)
Language                    : English
Tagged date                 : UTC 2017-11-09 18:24:03

Audio
ID                          : 2
Format                      : AAC
Format/Info                 : Advanced Audio Codec
Format profile              : LC
Codec ID                    : 40
Duration                    : 2 h 25 min
Bit rate mode               : Variable
Bit rate                    : 93.4 kb/s
Maximum bit rate            : 99.0 kb/s
Channel(s)                  : 2 channels
Channel positions           : Front: L R
Sampling rate               : 48.0 kHz
Frame rate                  : 46.875 FPS (1024 SPF)
Compression mode            : Lossy
Stream size                 : 97.2 MiB (2%)
Language                    : English
Default                     : Yes
Alternate group             : 1
Encoded date                : UTC 2017-11-09 18:24:01
Tagged date                 : UTC 2017-11-09 18:24:03



ImageImageImageImageImageImage



SINGLE DIRECT FAST LINKS
Code: 
Please Login / Register to view the Link
http://www.heroupload.com/e0bd66ff67ec1ae3/Meyaadha.Maan.2017.1080p.HD.AVC.MP4.ESubs.Tamil-MTR.mp4


Code: 
Please Login / Register to view the Link
http://filefloater.com/9b0/Meyaadha.Maan.2017.1080p.HD.AVC.MP4.ESubs.Tamil-MTR.mp4

1GB LINKS

Code: 
Please Login / Register to view the Link
http://www.heroupload.com/2b79b3c8cb0d4a31/Meyaadha.Maan.2017.1080p.HD.AVC.MP4.ESubs.Tamil-MTR.part1.rar
http://www.heroupload.com/ce367c3eecb671fc/Meyaadha.Maan.2017.1080p.HD.AVC.MP4.ESubs.Tamil-MTR.part2.rar
http://www.heroupload.com/d781f8b1eaedecce/Meyaadha.Maan.2017.1080p.HD.AVC.MP4.ESubs.Tamil-MTR.part3.rar
http://www.heroupload.com/569360fa9ab5aaa7/Meyaadha.Maan.2017.1080p.HD.AVC.MP4.ESubs.Tamil-MTR.part4.rar
http://www.heroupload.com/c97338315459b652/Meyaadha.Maan.2017.1080p.HD.AVC.MP4.ESubs.Tamil-MTR.part5.rar
http://www.heroupload.com/b68687ebd8fc8a0f/Meyaadha.Maan.2017.1080p.HD.AVC.MP4.ESubs.Tamil-MTR.srt


Code: 
Please Login / Register to view the Link
http://filefloater.com/9b1/Meyaadha.Maan.2017.1080p.HD.AVC.MP4.ESubs.Tamil-MTR.part1.rar
http://filefloater.com/9b2/Meyaadha.Maan.2017.1080p.HD.AVC.MP4.ESubs.Tamil-MTR.part2.rar
http://filefloater.com/9b3/Meyaadha.Maan.2017.1080p.HD.AVC.MP4.ESubs.Tamil-MTR.part3.rar
http://filefloater.com/9b4/Meyaadha.Maan.2017.1080p.HD.AVC.MP4.ESubs.Tamil-MTR.part4.rar
http://filefloater.com/9b5/Meyaadha.Maan.2017.1080p.HD.AVC.MP4.ESubs.Tamil-MTR.part5.rar
http://filefloater.com/9b6/Meyaadha.Maan.2017.1080p.HD.AVC.MP4.ESubs.Tamil-MTR.srt
By Advertisement Bot
#...?