#4787941
Image



Code: 
Please Login / Register to view the Link
General
Format                      : MPEG-4
Format profile              : Base Media
Codec ID                    : isom (isom)
File size                   : 3.40 GiB
Duration                    : 2 h 25 min
Overall bit rate mode       : Variable
Overall bit rate            : 3 347 kb/s
Encoded date                : UTC 2017-11-09 18:26:25
Tagged date                 : UTC 2017-11-09 18:26:25
Writing application         : MkvToMp4 [www.mkvtomp4.ru] version 0.224 (x64)

Video
ID                          : 1
Format                      : AVC
Format/Info                 : Advanced Video Codec
Format profile              : Main@L3.1
Format settings, CABAC      : Yes
Format settings, RefFrames  : 3 frames
Format settings, GOP        : M=4, N=90
Codec ID                    : avc1
Codec ID/Info               : Advanced Video Coding
Duration                    : 2 h 25 min
Source duration             : 2 h 25 min
Bit rate mode               : Constant
Bit rate                    : 3 250 kb/s
Maximum bit rate            : 6 739 kb/s
Width                       : 1 280 pixels
Height                      : 720 pixels
Display aspect ratio        : 16:9
Frame rate mode             : Constant
Frame rate                  : 29.970 (30000/1001) FPS
Color space                 : YUV
Chroma subsampling          : 4:2:0
Bit depth                   : 8 bits
Scan type                   : Progressive
Bits/(Pixel*Frame)          : 0.118
Stream size                 : 3.16 GiB (93%)
Source stream size          : 3.30 GiB (97%)
Language                    : English
Tagged date                 : UTC 2017-11-09 18:26:31

Audio
ID                          : 2
Format                      : AAC
Format/Info                 : Advanced Audio Codec
Format profile              : LC
Codec ID                    : 40
Duration                    : 2 h 25 min
Bit rate mode               : Variable
Bit rate                    : 93.4 kb/s
Maximum bit rate            : 99.0 kb/s
Channel(s)                  : 2 channels
Channel positions           : Front: L R
Sampling rate               : 48.0 kHz
Frame rate                  : 46.875 FPS (1024 SPF)
Compression mode            : Lossy
Stream size                 : 97.2 MiB (3%)
Language                    : English
Default                     : Yes
Alternate group             : 1
Encoded date                : UTC 2017-11-09 18:26:29
Tagged date                 : UTC 2017-11-09 18:26:31


ImageImageImageImage


SINGLE DIRECT FAST LINKS
Code: 
Please Login / Register to view the Link
http://www.heroupload.com/d9d0cc2ed2a8cdfb/Meyaadha.Maan.2017.720p.HD.AVC.MP4.ESubs.Tamil-MTR.mp4


Code: 
Please Login / Register to view the Link
http://filefloater.com/9aU/Meyaadha.Maan.2017.720p.HD.AVC.MP4.ESubs.Tamil-MTR.mp4

1GB LINKS
Code: 
Please Login / Register to view the Link
http://www.heroupload.com/2d5ea752f5317230/Meyaadha.Maan.2017.720p.HD.AVC.MP4.ESubs.Tamil-MTR.part1.rar
http://www.heroupload.com/12f73e35e18969d0/Meyaadha.Maan.2017.720p.HD.AVC.MP4.ESubs.Tamil-MTR.part2.rar
http://www.heroupload.com/803c58100a50b56b/Meyaadha.Maan.2017.720p.HD.AVC.MP4.ESubs.Tamil-MTR.part3.rar
http://www.heroupload.com/9138a6449f51da71/Meyaadha.Maan.2017.720p.HD.AVC.MP4.ESubs.Tamil-MTR.part4.rar
http://www.heroupload.com/4d1878973a339600/Meyaadha.Maan.2017.720p.HD.AVC.MP4.ESubs.Tamil-MTR.srt


Code: 
Please Login / Register to view the Link
http://filefloater.com/9aV/Meyaadha.Maan.2017.720p.HD.AVC.MP4.ESubs.Tamil-MTR.part1.rar
http://filefloater.com/9aW/Meyaadha.Maan.2017.720p.HD.AVC.MP4.ESubs.Tamil-MTR.part2.rar
http://filefloater.com/9aX/Meyaadha.Maan.2017.720p.HD.AVC.MP4.ESubs.Tamil-MTR.part3.rar
http://filefloater.com/9aY/Meyaadha.Maan.2017.720p.HD.AVC.MP4.ESubs.Tamil-MTR.part4.rar
http://filefloater.com/9aZ/Meyaadha.Maan.2017.720p.HD.AVC.MP4.ESubs.Tamil-MTR.srt
By Advertisement Bot
#...?