#4787929
Image




Code: 
Please Login / Register to view the Link
General
Format                      : MPEG-4
Format profile              : Base Media
Codec ID                    : isom (isom)
File size                   : 4.04 GB
Duration                    : 2 h 11 min
Overall bit rate mode       : Variable
Overall bit rate            : 4 404 kb/s
Encoded date                : UTC 2017-11-09 18:48:45
Tagged date                 : UTC 2017-11-09 18:48:45
Writing application         : MkvToMp4 [www.mkvtomp4.ru] version 0.224 (x64)

Video
ID                          : 1
Format                      : AVC
Format/Info                 : Advanced Video Codec
Format profile              : High@L4
Format settings, CABAC      : Yes
Format settings, RefFrames  : 4 frames
Codec ID                    : avc1
Codec ID/Info               : Advanced Video Coding
Duration                    : 2 h 11 min
Bit rate                    : 4 083 kb/s
Maximum bit rate            : 11.3 Mb/s
Width                       : 1 920 pixels
Height                      : 1 080 pixels
Display aspect ratio        : 16:9
Frame rate mode             : Constant
Frame rate                  : 25.000 FPS
Color space                 : YUV
Chroma subsampling          : 4:2:0
Bit depth                   : 8 bits
Scan type                   : Progressive
Bits/(Pixel*Frame)          : 0.079
Stream size                 : 3.74 GiB (93%)
Writing library             : Zencoder Video Encoding System
Language                    : English
Tagged date                 : UTC 2017-11-09 18:48:54
Color range                 : Limited
Color primaries             : BT.709
Transfer characteristics    : BT.709
Matrix coefficients         : BT.709

Audio
ID                          : 2
Format                      : AAC
Format/Info                 : Advanced Audio Codec
Format profile              : LC
Codec ID                    : 40
Duration                    : 2 h 11 min
Bit rate mode               : Variable
Bit rate                    : 317 kb/s
Maximum bit rate            : 397 kb/s
Channel(s)                  : 2 channels
Channel(s)_Original         : 6 channels
Channel positions           : Front: L C R, Side: L R, LFE
Sampling rate               : 48.0 kHz
Frame rate                  : 46.875 FPS (1024 SPF)
Compression mode            : Lossy
Stream size                 : 298 MiB (7%)
Language                    : English
Default                     : Yes
Alternate group             : 1
Encoded date                : UTC 2017-11-09 18:48:52
Tagged date                 : UTC 2017-11-09 18:48:54




ImageImageImageImage


SINGLE DIRECT FAST LINKS
Code: 
Please Login / Register to view the Link
http://www.heroupload.com/1748fdbed8ac5e5f/Kalathur.Gramam.2017.1080p.v2.HD.AVC.5.1.MP4.ESubs.Tamil-MTR.mp4


Code: 
Please Login / Register to view the Link
http://filefloater.com/6zb/Kalathur.Gramam.2017.1080p.v2.HD.AVC.5.1.MP4.ESubs.Tamil-MTR.mp4

1GB LINKS
Code: 
Please Login / Register to view the Link
http://www.heroupload.com/6f5c51d4d29a8264/Kalathur.Gramam.2017.1080p.v2.HD.AVC.5.1.MP4.ESubs.Tamil-MTR.part1.rar
http://www.heroupload.com/10a3cfbbc64611a4/Kalathur.Gramam.2017.1080p.v2.HD.AVC.5.1.MP4.ESubs.Tamil-MTR.part2.rar
http://www.heroupload.com/687d88fa84ce2635/Kalathur.Gramam.2017.1080p.v2.HD.AVC.5.1.MP4.ESubs.Tamil-MTR.part3.rar
http://www.heroupload.com/fa60f79be61f963d/Kalathur.Gramam.2017.1080p.v2.HD.AVC.5.1.MP4.ESubs.Tamil-MTR.part4.rar
http://www.heroupload.com/fd0c174edc849016/Kalathur.Gramam.2017.1080p.v2.HD.AVC.5.1.MP4.ESubs.Tamil-MTR.part5.rar
http://www.heroupload.com/7be6874be762d3cf/Kalathur.Gramam.2017.1080p.v2.HD.AVC.5.1.MP4.ESubs.Tamil-MTR.srt


Code: 
Please Login / Register to view the Link
http://filefloater.com/6zc/Kalathur.Gramam.2017.1080p.v2.HD.AVC.5.1.MP4.ESubs.Tamil-MTR.part1.rar
http://filefloater.com/6zd/Kalathur.Gramam.2017.1080p.v2.HD.AVC.5.1.MP4.ESubs.Tamil-MTR.part2.rar
http://filefloater.com/6ze/Kalathur.Gramam.2017.1080p.v2.HD.AVC.5.1.MP4.ESubs.Tamil-MTR.part3.rar
http://filefloater.com/6zf/Kalathur.Gramam.2017.1080p.v2.HD.AVC.5.1.MP4.ESubs.Tamil-MTR.part4.rar
http://filefloater.com/6zg/Kalathur.Gramam.2017.1080p.v2.HD.AVC.5.1.MP4.ESubs.Tamil-MTR.part5.rar
http://filefloater.com/6zh/Kalathur.Gramam.2017.1080p.v2.HD.AVC.5.1.MP4.ESubs.Tamil-MTR.srt
By Advertisement Bot
#...?