#4787925
Image



Code: 
Please Login / Register to view the Link
General
Format                      : MPEG-4
Format profile              : Base Media
Codec ID                    : isom (isom)
File size                   : 2.12 GiB
Duration                    : 2 h 11 min
Overall bit rate mode       : Variable
Overall bit rate            : 2 317 kb/s
Encoded date                : UTC 2017-11-09 18:53:31
Tagged date                 : UTC 2017-11-09 18:53:31
Writing application         : MkvToMp4 [www.mkvtomp4.ru] version 0.224 (x64)

Video
ID                          : 1
Format                      : AVC
Format/Info                 : Advanced Video Codec
Format profile              : Main@L3.1
Format settings, CABAC      : Yes
Format settings, RefFrames  : 4 frames
Codec ID                    : avc1
Codec ID/Info               : Advanced Video Coding
Duration                    : 2 h 11 min
Bit rate                    : 1 995 kb/s
Maximum bit rate            : 5 257 kb/s
Width                       : 1 280 pixels
Height                      : 720 pixels
Display aspect ratio        : 16:9
Frame rate mode             : Constant
Frame rate                  : 25.000 FPS
Color space                 : YUV
Chroma subsampling          : 4:2:0
Bit depth                   : 8 bits
Scan type                   : Progressive
Bits/(Pixel*Frame)          : 0.087
Stream size                 : 1.83 GiB (86%)
Writing library             : Zencoder Video Encoding System
Language                    : English
Tagged date                 : UTC 2017-11-09 18:53:38
Color range                 : Limited
Color primaries             : BT.709
Transfer characteristics    : BT.709
Matrix coefficients         : BT.709

Audio
ID                          : 2
Format                      : AAC
Format/Info                 : Advanced Audio Codec
Format profile              : LC
Codec ID                    : 40
Duration                    : 2 h 11 min
Bit rate mode               : Variable
Bit rate                    : 317 kb/s
Maximum bit rate            : 397 kb/s
Channel(s)                  : 2 channels
Channel(s)_Original         : 6 channels
Channel positions           : Front: L C R, Side: L R, LFE
Sampling rate               : 48.0 kHz
Frame rate                  : 46.875 FPS (1024 SPF)
Compression mode            : Lossy
Stream size                 : 298 MiB (14%)
Language                    : English
Default                     : Yes
Alternate group             : 1
Encoded date                : UTC 2017-11-09 18:53:35
Tagged date                 : UTC 2017-11-09 18:53:38



ImageImageImageImageImage

SINGLE DIRECT FAST LINKS
Code: 
Please Login / Register to view the Link
http://www.heroupload.com/aeaff4ed7ca0d6c9/Kalathur.Gramam.2017.720p.v2.HD.AVC.5.1.MP4.ESubs.Tamil-MTR.mp4


Code: 
Please Login / Register to view the Link
http://filefloater.com/6z4/Kalathur.Gramam.2017.720p.v2.HD.AVC.5.1.MP4.ESubs.Tamil-MTR.mp4

700MB LINKS
Code: 
Please Login / Register to view the Link
http://www.heroupload.com/98d47c4bb5b48ce6/Kalathur.Gramam.2017.720p.v2.HD.AVC.5.1.MP4.ESubs.Tamil-MTR.part1.rar
http://www.heroupload.com/83f2053661dbcaaf/Kalathur.Gramam.2017.720p.v2.HD.AVC.5.1.MP4.ESubs.Tamil-MTR.part2.rar
http://www.heroupload.com/ee399b47896525b5/Kalathur.Gramam.2017.720p.v2.HD.AVC.5.1.MP4.ESubs.Tamil-MTR.part3.rar
http://www.heroupload.com/84f97c19107e7cae/Kalathur.Gramam.2017.720p.v2.HD.AVC.5.1.MP4.ESubs.Tamil-MTR.part4.rar
http://www.heroupload.com/b3c6446818618754/Kalathur.Gramam.2017.720p.v2.HD.AVC.5.1.MP4.ESubs.Tamil-MTR.srt


Code: 
Please Login / Register to view the Link
http://filefloater.com/6z6/Kalathur.Gramam.2017.720p.v2.HD.AVC.5.1.MP4.ESubs.Tamil-MTR.part1.rar
http://filefloater.com/6z7/Kalathur.Gramam.2017.720p.v2.HD.AVC.5.1.MP4.ESubs.Tamil-MTR.part2.rar
http://filefloater.com/6z8/Kalathur.Gramam.2017.720p.v2.HD.AVC.5.1.MP4.ESubs.Tamil-MTR.part3.rar
http://filefloater.com/6z9/Kalathur.Gramam.2017.720p.v2.HD.AVC.5.1.MP4.ESubs.Tamil-MTR.part4.rar
http://filefloater.com/6za/Kalathur.Gramam.2017.720p.v2.HD.AVC.5.1.MP4.ESubs.Tamil-MTR.srt
By Advertisement Bot
#...?