#4787103
Image



Code: 
Please Login / Register to view the Link
General
Format                      : Matroska
Format version              : Version 4 / Version 2
File size                   : 2.90 GiB
Duration                    : 1 h 53 min
Overall bit rate            : 3 666 kb/s
Encoded date                : UTC 2017-11-07 12:35:48
Writing application         : mkvmerge v8.2.0 ('World of Adventure') 64bit
Writing library             : libebml v1.3.1 + libmatroska v1.4.2

Video
ID                          : 1
Format                      : AVC
Format/Info                 : Advanced Video Codec
Format profile              : High@L4
Format settings, CABAC      : Yes
Format settings, RefFrames  : 2 frames
Codec ID                    : V_MPEG4/ISO/AVC
Duration                    : 1 h 53 min
Bit rate                    : 3 539 kb/s
Width                       : 1 920 pixels
Height                      : 1 080 pixels
Display aspect ratio        : 16:9
Frame rate mode             : Constant
Frame rate                  : 24.000 FPS
Standard                    : Component
Color space                 : YUV
Chroma subsampling          : 4:2:0
Bit depth                   : 8 bits
Scan type                   : Progressive
Bits/(Pixel*Frame)          : 0.071
Stream size                 : 2.80 GiB (97%)
Language                    : Telugu
Default                     : Yes
Forced                      : No
Color range                 : Limited
Color primaries             : BT.709
Transfer characteristics    : BT.709
Matrix coefficients         : BT.709

Audio
ID                          : 2
Format                      : AAC
Format/Info                 : Advanced Audio Codec
Format profile              : LC
Codec ID                    : A_AAC
Duration                    : 1 h 53 min
Bit rate                    : 125 kb/s
Channel(s)                  : 2 channels
Channel positions           : Front: L R
Sampling rate               : 44.1 kHz
Frame rate                  : 43.066 FPS (1024 SPF)
Compression mode            : Lossy
Stream size                 : 101 MiB (3%)
Language                    : Telugu
Default                     : Yes
Forced                      : No



Image
ImageImageImageImageImageImage


SINGLE DIRECT FAST LINKS
Code: 
Please Login / Register to view the Link
http://www.heroupload.com/691735a1e25ec981/Gunturodu.2017.Telugu.WEB-HD.1080p.AVC.AAC-TMV.mkv


Code: 
Please Login / Register to view the Link
http://filefloater.com/9a7/Gunturodu.2017.Telugu.WEB-HD.1080p.AVC.AAC-TMV.mkv

700MB LINKS
Code: 
Please Login / Register to view the Link
http://www.heroupload.com/875fafb8eaba0054/Gunturodu.2017.Telugu.WEB-HD.1080p.AVC.AAC-TMV.part1.rar
http://www.heroupload.com/26f36109e8fe7f70/Gunturodu.2017.Telugu.WEB-HD.1080p.AVC.AAC-TMV.part2.rar
http://www.heroupload.com/80e79880877883d9/Gunturodu.2017.Telugu.WEB-HD.1080p.AVC.AAC-TMV.part3.rar
http://www.heroupload.com/98e99f59c04161da/Gunturodu.2017.Telugu.WEB-HD.1080p.AVC.AAC-TMV.part4.rar
http://www.heroupload.com/e64152f19b792b97/Gunturodu.2017.Telugu.WEB-HD.1080p.AVC.AAC-TMV.part5.rar


Code: 
Please Login / Register to view the Link
http://filefloater.com/9a8/Gunturodu.2017.Telugu.WEB-HD.1080p.AVC.AAC-TMV.part1.rar
http://filefloater.com/9a9/Gunturodu.2017.Telugu.WEB-HD.1080p.AVC.AAC-TMV.part2.rar
http://filefloater.com/9aa/Gunturodu.2017.Telugu.WEB-HD.1080p.AVC.AAC-TMV.part3.rar
http://filefloater.com/9ab/Gunturodu.2017.Telugu.WEB-HD.1080p.AVC.AAC-TMV.part4.rar
http://filefloater.com/9ac/Gunturodu.2017.Telugu.WEB-HD.1080p.AVC.AAC-TMV.part5.rar
By Advertisement Bot
#...?