#4784249
Image





Code: 
Please Login / Register to view the Link
General
Format                      : MPEG-4
Format profile              : Base Media
Codec ID                    : isom (isom/iso2/avc1/mp41)
File size                   : 2.37 GiB
Duration                    : 2 h 5 min
Overall bit rate            : 2 703 kb/s
Writing application         : Lavf57.41.100

Video
ID                          : 1
Format                      : AVC
Format/Info                 : Advanced Video Codec
Format profile              : High@L4.1
Format settings, CABAC      : Yes
Format settings, RefFrames  : 4 frames
Format settings, GOP        : M=4, N=50
Codec ID                    : avc1
Codec ID/Info               : Advanced Video Coding
Duration                    : 2 h 5 min
Bit rate                    : 2 568 kb/s
Nominal bit rate            : 3 500 kb/s
Width                       : 1 920 pixels
Height                      : 1 080 pixels
Display aspect ratio        : 16:9
Frame rate mode             : Constant
Frame rate                  : 25.000 FPS
Color space                 : YUV
Chroma subsampling          : 4:2:0
Bit depth                   : 8 bits
Scan type                   : Progressive
Bits/(Pixel*Frame)          : 0.050
Stream size                 : 2.25 GiB (95%)
Writing library             : x264 core 148 r2694 3b70645
Encoding settings           : cabac=1 / ref=3 / deblock=1:0:0 / analyse=0x3:0x113 / me=hex / subme=7 / psy=1 / psy_rd=1.00:0.00 / mixed_ref=1 / me_range=16 / chroma_me=1 / trellis=1 / 8x8dct=1 / cqm=0 / deadzone=21,11 / fast_pskip=1 / chroma_qp_offset=-2 / threads=34 / lookahead_threads=5 / sliced_threads=0 / nr=0 / decimate=1 / interlaced=0 / bluray_compat=0 / constrained_intra=0 / bframes=3 / b_pyramid=2 / b_adapt=1 / b_bias=0 / direct=1 / weightb=1 / open_gop=0 / weightp=2 / keyint=50 / keyint_min=26 / scenecut=0 / intra_refresh=0 / rc_lookahead=40 / rc=cbr / mbtree=1 / bitrate=3500 / ratetol=1.0 / qcomp=0.60 / qpmin=0 / qpmax=69 / qpstep=4 / vbv_maxrate=3500 / vbv_bufsize=3500 / nal_hrd=none / filler=0 / ip_ratio=1.40 / aq=1:1.00
Tagged date                 : UTC 2017-11-05 14:39:16

Audio
ID                          : 2
Format                      : AAC
Format/Info                 : Advanced Audio Codec
Format profile              : LC
Codec ID                    : 40
Duration                    : 2 h 5 min
Source duration             : 2 h 5 min
Bit rate mode               : Constant
Bit rate                    : 132 kb/s
Channel(s)                  : 2 channels
Channel positions           : Front: L R
Sampling rate               : 48.0 kHz
Frame rate                  : 46.875 FPS (1024 SPF)
Compression mode            : Lossy
Stream size                 : 118 MiB (5%)
Source stream size          : 118 MiB (5%)
Language                    : English
Default                     : Yes
Alternate group             : 1
Tagged date                 : UTC 2017-11-05 14:39:16


ImageImageImageImageImage


SINGLE DIRECT FAST LINKS
Code: 
Please Login / Register to view the Link
http://www.heroupload.com/60a1d21ffc2c25b7/Pelli.Gola.2017.Telugu.WEB-HD.1080p.AVC.AAC-TMV.mp4


Code: 
Please Login / Register to view the Link
http://filefloater.com/6x0/Pelli.Gola.2017.Telugu.WEB-HD.1080p.AVC.AAC-TMV.mp4

1GB LINKS
Code: 
Please Login / Register to view the Link
http://www.heroupload.com/286a5d6a4dd2b4c3/Pelli.Gola.2017.Telugu.WEB-HD.1080p.AVC.AAC-TMV.part1.rar
http://www.heroupload.com/38b137ff0b250f04/Pelli.Gola.2017.Telugu.WEB-HD.1080p.AVC.AAC-TMV.part2.rar
http://www.heroupload.com/c9ff1c97b1dbea40/Pelli.Gola.2017.Telugu.WEB-HD.1080p.AVC.AAC-TMV.part3.rar


Code: 
Please Login / Register to view the Link
http://filefloater.com/6x1/Pelli.Gola.2017.Telugu.WEB-HD.1080p.AVC.AAC-TMV.part1.rar
http://filefloater.com/6x2/Pelli.Gola.2017.Telugu.WEB-HD.1080p.AVC.AAC-TMV.part2.rar
http://filefloater.com/6x3/Pelli.Gola.2017.Telugu.WEB-HD.1080p.AVC.AAC-TMV.part3.rar
By Advertisement Bot
#...?