#4782749
Image


Code: 
Please Login / Register to view the Link
General
Complete name : Tula Kalnnaar Nahi 2017 1080p WebHDRip x264 AAC [TMB].mp4
Format : MPEG-4
Format profile : Base Media / Version 2
Codec ID : mp42 (isom/iso2/avc1/mp41)
File size : 2.91 GiB
Duration : 2 h 0 min
Overall bit rate : 3 442 kb/s

Video
Format : AVC
Format/Info : Advanced Video Codec
Format profile : Main@L4
Format settings : CABAC / 4 Ref Frames
Format settings, CABAC : Yes
Format settings, RefFrames : 4 frames
Codec ID : avc1
Codec ID/Info : Advanced Video Coding
Duration : 2 h 0 min
Bit rate : 3 277 kb/s
Width : 1 920 pixels
Height : 816 pixels
Display aspect ratio : 2.35:1
Frame rate mode : Variable
Frame rate : 23.976 (23976/1000) FPS
Minimum frame rate : 11.987 FPS
Maximum frame rate : 23.981 FPS
Color space : YUV
Chroma subsampling : 4:2:0
Bit depth : 8 bits
Scan type : Progressive
Bits/(Pixel*Frame) : 0.087
Stream size : 2.74 GiB (94%)
Writing library : x264 core 148 r2708 86b7198

Audio
Format : AC-3
Format/Info : Audio Coding 3
Format settings, Endianness : Big
Codec ID : ac-3
Duration : 2 h 0 min
Bit rate mode : Constant
Bit rate : 192 kb/s
Channel(s) : 2 channels
Channel positions : Front: L R
Sampling rate : 48.0 kHz
Frame rate : 31.250 FPS (1536 SPF)
Bit depth : 16 bits
Compression mode : Lossy
Stream size : 166 MiB (6%)



ImageImageImageImageImage

Image
Buy Premium Account From My Download Links And Get Resumable Support & SUPER Fastest Speed
Code: 
Please Login / Register to view the Link
http://rapidpaid.com/f71727b7fc61f562/Tula_Kalnnaar_Nahi_2017_1080p_WebHDRip_x264_AAC_[TMB].mp4


Image
By Advertisement Bot
#...?