#4777819
Image



Code: 
Please Login / Register to view the Link
General
Format                      : MPEG-4
Format profile              : Base Media
Codec ID                    : isom (isom/iso2/avc1/mp41)
File size                   : 2.44 GiB
Duration                    : 2 h 16 min
Overall bit rate mode       : Variable
Overall bit rate            : 2 562 kb/s
Writing application         : Lavf57.84.100

Video
ID                          : 1
Format                      : AVC
Format/Info                 : Advanced Video Codec
Format profile              : High@L4.1
Format settings, CABAC      : Yes
Format settings, RefFrames  : 4 frames
Codec ID                    : avc1
Codec ID/Info               : Advanced Video Coding
Duration                    : 2 h 16 min
Bit rate                    : 2 428 kb/s
Nominal bit rate            : 3 500 kb/s
Width                       : 1 920 pixels
Height                      : 1 080 pixels
Display aspect ratio        : 16:9
Frame rate mode             : Constant
Frame rate                  : 25.000 FPS
Color space                 : YUV
Chroma subsampling          : 4:2:0
Bit depth                   : 8 bits
Scan type                   : Progressive
Bits/(Pixel*Frame)          : 0.047
Stream size                 : 2.31 GiB (95%)
Writing library             : x264 core 148 r2694 3b70645
Encoding settings           : cabac=1 / ref=3 / deblock=1:0:0 / analyse=0x3:0x113 / me=hex / subme=7 / psy=1 / psy_rd=1.00:0.00 / mixed_ref=1 / me_range=16 / chroma_me=1 / trellis=1 / 8x8dct=1 / cqm=0 / deadzone=21,11 / fast_pskip=1 / chroma_qp_offset=-2 / threads=34 / lookahead_threads=5 / sliced_threads=0 / nr=0 / decimate=1 / interlaced=0 / bluray_compat=0 / constrained_intra=0 / bframes=3 / b_pyramid=2 / b_adapt=1 / b_bias=0 / direct=1 / weightb=1 / open_gop=0 / weightp=2 / keyint=50 / keyint_min=26 / scenecut=0 / intra_refresh=0 / rc_lookahead=40 / rc=cbr / mbtree=1 / bitrate=3500 / ratetol=1.0 / qcomp=0.60 / qpmin=0 / qpmax=69 / qpstep=4 / vbv_maxrate=3500 / vbv_bufsize=3500 / nal_hrd=none / filler=0 / ip_ratio=1.40 / aq=1:1.00

Audio
ID                          : 2
Format                      : AAC
Format/Info                 : Advanced Audio Codec
Format profile              : LC
Codec ID                    : 40
Duration                    : 2 h 16 min
Bit rate mode               : Variable
Bit rate                    : 128 kb/s
Maximum bit rate            : 131 kb/s
Channel(s)                  : 2 channels
Channel positions           : Front: L R
Sampling rate               : 48.0 kHz
Frame rate                  : 46.875 FPS (1024 SPF)
Compression mode            : Lossy
Stream size                 : 125 MiB (5%)
Default                     : Yes
Alternate group             : 1



ImageImageImageImageImage

SINGLE DIRECT FAST LINKS
Code: 
Please Login / Register to view the Link
http://www.heroupload.com/adfc467171f2329e/Nagaram.2017.Telugu.Original.WEB-HD.1080p.AVC.AAC-TMV.mp4


Code: 
Please Login / Register to view the Link
http://filefloater.com/6uk/Nagaram.2017.Telugu.Original.WEB-HD.1080p.AVC.AAC-TMV.mp4

700MB LINKS
Code: 
Please Login / Register to view the Link
http://www.heroupload.com/6ce46cb169a4b8ff/Nagaram.2017.Telugu.Original.WEB-HD.1080p.AVC.AAC-TMV.part1.rar
http://www.heroupload.com/dc013bc2954d3776/Nagaram.2017.Telugu.Original.WEB-HD.1080p.AVC.AAC-TMV.part2.rar
http://www.heroupload.com/0776975f98daa34c/Nagaram.2017.Telugu.Original.WEB-HD.1080p.AVC.AAC-TMV.part3.rar
http://www.heroupload.com/9479f017029b5f94/Nagaram.2017.Telugu.Original.WEB-HD.1080p.AVC.AAC-TMV.part4.rar


Code: 
Please Login / Register to view the Link
http://filefloater.com/6ul/Nagaram.2017.Telugu.Original.WEB-HD.1080p.AVC.AAC-TMV.part1.rar
http://filefloater.com/6um/Nagaram.2017.Telugu.Original.WEB-HD.1080p.AVC.AAC-TMV.part2.rar
http://filefloater.com/6un/Nagaram.2017.Telugu.Original.WEB-HD.1080p.AVC.AAC-TMV.part3.rar
http://filefloater.com/6uo/Nagaram.2017.Telugu.Original.WEB-HD.1080p.AVC.AAC-TMV.part4.rar
By Advertisement Bot
#...?