#4777808
Image



Code: 
Please Login / Register to view the Link
General
Format                      : MPEG-4
Format profile              : Base Media
Codec ID                    : isom (isom/iso2/avc1/mp41)
File size                   : 1.50 GiB
Duration                    : 2 h 16 min
Overall bit rate mode       : Variable
Overall bit rate            : 1 571 kb/s
Writing application         : Lavf57.84.100

Video
ID                          : 1
Format                      : AVC
Format/Info                 : Advanced Video Codec
Format profile              : Main@L3.1
Format settings, CABAC      : Yes
Format settings, RefFrames  : 4 frames
Codec ID                    : avc1
Codec ID/Info               : Advanced Video Coding
Duration                    : 2 h 16 min
Bit rate                    : 1 435 kb/s
Nominal bit rate            : 1 800 kb/s
Width                       : 960 pixels
Height                      : 540 pixels
Display aspect ratio        : 16:9
Frame rate mode             : Constant
Frame rate                  : 25.000 FPS
Color space                 : YUV
Chroma subsampling          : 4:2:0
Bit depth                   : 8 bits
Scan type                   : Progressive
Bits/(Pixel*Frame)          : 0.111
Stream size                 : 1.37 GiB (91%)
Writing library             : x264 core 148 r2694 3b70645
Encoding settings           : cabac=1 / ref=3 / deblock=1:0:0 / analyse=0x1:0x111 / me=hex / subme=7 / psy=1 / psy_rd=1.00:0.00 / mixed_ref=1 / me_range=16 / chroma_me=1 / trellis=1 / 8x8dct=0 / cqm=0 / deadzone=21,11 / fast_pskip=1 / chroma_qp_offset=-2 / threads=17 / lookahead_threads=2 / sliced_threads=0 / nr=0 / decimate=1 / interlaced=0 / bluray_compat=0 / constrained_intra=0 / bframes=3 / b_pyramid=2 / b_adapt=1 / b_bias=0 / direct=1 / weightb=1 / open_gop=0 / weightp=2 / keyint=50 / keyint_min=26 / scenecut=0 / intra_refresh=0 / rc_lookahead=40 / rc=cbr / mbtree=1 / bitrate=1800 / ratetol=1.0 / qcomp=0.60 / qpmin=0 / qpmax=69 / qpstep=4 / vbv_maxrate=1800 / vbv_bufsize=1800 / nal_hrd=none / filler=0 / ip_ratio=1.40 / aq=1:1.00

Audio
ID                          : 2
Format                      : AAC
Format/Info                 : Advanced Audio Codec
Format profile              : LC
Codec ID                    : 40
Duration                    : 2 h 16 min
Bit rate mode               : Variable
Bit rate                    : 128 kb/s
Maximum bit rate            : 130 kb/s
Channel(s)                  : 2 channels
Channel positions           : Front: L R
Sampling rate               : 44.1 kHz
Frame rate                  : 43.066 FPS (1024 SPF)
Compression mode            : Lossy
Stream size                 : 125 MiB (8%)
Default                     : Yes
Alternate group             : 1



ImageImageImage


SINGLE DIRECT FAST LINKS

Code: 
Please Login / Register to view the Link
http://www.heroupload.com/eb88dfeda1d3f5ea/Nagaram.2017.Telugu.Original.WEB-HD.540p.AVC.AAC-TMV.mp4


Code: 
Please Login / Register to view the Link
http://filefloater.com/6ui/Nagaram.2017.Telugu.Original.WEB-HD.540p.AVC.AAC-TMV.mp4
By Advertisement Bot
#...?