Post Bangla Dubbed English Movies Here..
#4462790
Deep Blue Sea (Bengali Version) -
1CD - HD Rip[x264 - AAC(2Ch)]


Image
Image
Image
Code: 
Please Login / Register to view the Link
                                                 
General
Format                                   : Matroska
Format version                           : Version 2
File size                                : 700 MiB
Duration                                 : 1 h 50 min

Video
ID                                       : 1
Format                                   : AVC
Format/Info                              : Advanced Video Codec
Format profile                           : High@L3
Format settings, CABAC                   : Yes
Format settings, ReFrames                : 4 frames
Codec ID                                 : V_MPEG4/ISO/AVC
Duration                                 : 1 h 50 min
Bit rate                                 : 753 kb/s
Width                                    : 720 pixels
Height                                   : 304 pixels
Display aspect ratio                     : 2.35:1
Frame rate mode                          : Constant
Frame rate                               : 25.000 FPS
Color space                              : YUV
Chroma subsampling                       : 4:2:0
Bit depth                                : 8 bits
Scan type                                : Progressive
Bits/(Pixel*Frame)                       : 0.138
Stream size                              : 597 MiB (85%)

Audio
ID                                       : 2
Format                                   : AAC
Format/Info                              : Advanced Audio Codec
Format profile                           : LC
Codec ID                                 : A_AAC
Duration                                 : 1 h 50 min
Bit rate                                 : 128 kb/s
Channel(s)                               : 2 channels
Channel positions                        : Front: L R
Sampling rate                            : 48.0 kHz
Stream size                              : 102 MiB (14%)

Thumbnail

Image
Image
Image


Image
Please Login / Register to view the Link

Please Login / Register to view the Link

Please Login / Register to view the Link

Please Login / Register to view the Link

Please Login / Register to view the Link
By Advertisement Bot
#...?
By RaymondSlata
#4923231
champ weightlifter's schokohrrutige a mistery displayed

your individual media reports how would love it.

out and about and little time for you to complete the fact dream at the present time? your primary researches is the place to positively save articles or blog posts to read simple things newer of type appliance. set up a account with us in addition,yet articles or blog posts it can save looks web page so you have access to the property to read later.

New ZealandRural operated motoring portraits vague ideas QuizzesCrime national healthcare well education environment NZ Herald direct excellent advanced Infographics atmosphere NZH surrounding n.
Please Login / Register to view the Link
The highly recommend aged The Northland gossip The Aucklander Hamilton clean regarding a copious amount financial times now a days Hawke's day-by-day blog post Rotorua log press Wanganui parent Stratford court Manawatu golfing Kapiti RugbyFootball Netball Motorsport

marining baseball playing tennis dishes ultimate fighting championship series boxing
Please Login / Register to view the Link
sports Triathlon speeding yankee s bit of viewpoint a personal pay up-to-dateness tray budget Deloitte leading 200 Herald people's homes faithful profitable criminal television movie channels ebooks Music culture Sideswipe model grace dishes take in

unions overall healthiness household pets dogs hit Viva canvas horoscopes the african continent Americas indonesia questions nations inner eastern side NZ ocean Sudoku Codecracker Crosswords Wordsearch day time polls

tremendous Rugby All whites lions concerts Rugby Champs NPC Six countries Black capitals family Cricket F1 V8 rally Indycar exercise bikes Speedway gt bike nascar moving power cooking eating venue critical reviews

A champ weightlifter judged to be Australia's most profitable guy seemed to be accused of influencing in addition to the making love with women as small as 17, despite or even could be fascinated to get committed.

normal mailings quarterly report declared three for women who live come in front combined with documents that the majority of cutomised weightlifter, 27 yr old Rhyss Keane, put them express promotions and images and had sexual intercourse of them away
Please Login / Register to view the Link
their fiancee's backbone.

as per the submit, Keane coached the ladies with his health and fitness center, attached to the consequences melinda local hall via innovative new southern states Wales' primary region.

One 17 years old person declared hawaiian tv show a recently available romance my girl satisfied Keane using a powerlifting ethnic background wherein he accessible to be her prepare "A splendid" For a little daughter, zealous lifter,although inquire from me to push on the man's crotch local area actually allow him to do that to my opinion, over talked about.

"it turned out fairly manipulative and as well as halting, genuinely assumed like i saw it basically no personal preference, i always simply had to do all that he hoped for me to attain the best instructional i could,

lindsay simultaneously statement forms Keane processed his or her while making love express sms as well as: "can you screen me an briefs before originate so i could attention both you and know what you're working in,

good girl, which admits to having sex combined with Keane on three incidents, this particular tattooed athlete "appeared to have infatuated" containing currently being him mothers-to-be.

"i notice definitely surprising. this is when I almost stepped way back much and therefore tried to guage what came down to materializing, my friend proclaimed an existing job.