Post English Movies Dubbed in Hindi Here
#4788197
Image


Format : Matroska
Format version : Version 4 / Version 2
File size : 2.24 GiB
Duration : 1 h 49 min
Overall bit rate : 2 930 kb/s
Movie name : Contraband 2012 720p BRRip x264 Dual Audio [Hindi + Eng] DD 5.0 ~ Ranvijay

Video
ID : 1
Format : AVC
Duration : 1 h 49 min
Bit rate : 2 100 kb/s
Width : 1 280 pixels
Height : 544 pixels
Stream size : 1.61 GiB (72%)
Title : ~~Ranvijay~~
Default : Yes
Forced : No

Audio #1
ID : 2
Format : AAC
Format/Info : Advanced Audio Codec
Format profile : LC
Codec ID : A_AAC-2
Duration : 1 h 49 min
Bit rate : 444 kb/s
Channel(s) : 6 channels
Channel positions : Front: L C R, Side: L R, LFE
Sampling rate : 48.0 kHz
Frame rate : 46.875 FPS (1024 SPF)
Compression mode : Lossy
Delay relative to video : -42 ms
Stream size : 348 MiB (15%)
Title : ~~Ranvijay~~
Language : English
Default : No
Forced : No

Audio #2
ID : 3
Format : AC-3
Format/Info : Audio Coding 3
Codec ID : A_AC3
Duration : 1 h 49 min
Bit rate mode : Constant
Bit rate : 384 kb/s
Channel(s) : 6 channels
Channel positions : Front: L C R, Side: L R, LFE
Sampling rate : 48.0 kHz
Frame rate : 31.250 FPS (1536 SPF)
Bit depth : 16 bits
Compression mode : Lossy
Delay relative to video : -18 ms
Stream size : 301 MiB (13%)
Title : ~~Ranvijay~~
Language : Hindi
Service kind : Complete Main
Default : Yes
Forced : No


Image
Image
Image
Image
Image
Image
Image
Image
Image
Image
Image
Image
Image
Image
Image
Image
Image


Image
Buy Premium Account From My Download Links And Get Resumable Support & SUPER Fastest Speed
Code: 
Please Login / Register to view the Link
http://rapidpaid.com/adea634021439c10/Contraband_2012_720p_BRRip_x264_Dual_Audio_[Hindi_+_Eng]_DD_5.0_~_Ranvijay.mkv


Image
By Advertisement Bot
#...?