Post English Movies Dubbed in Hindi Here
#4763027
Image


Format : Matroska
Format version : Version 4 / Version 2
File size : 3.96 GiB
Duration : 1 h 49 min
Overall bit rate mode : Variable
Overall bit rate : 5 200 kb/s
Movie name : The Sorcerers Apprentice 2010 720p BRRip x264 Dual Audio [Hindi + English] DD 5.0 - Msubs ~ Ranvijay

Video
ID : 1
Format : AVC
Format/Info : Advanced Video Codec
Format profile : High@L4.1
Format settings : CABAC / 3 Ref Frames
Format settings, CABAC : Yes
Format settings, RefFrames : 3 frames
Codec ID : V_MPEG4/ISO/AVC
Duration : 1 h 49 min
Bit rate mode : Variable
Bit rate : 3 900 kb/s
Maximum bit rate : 40.0 Mb/s
Width : 1 280 pixels
Height : 528 pixels
Display aspect ratio : 2.40:1
Frame rate mode : Constant
Frame rate : 23.976 (24000/1001) FPS
Color space : YUV
Chroma subsampling : 4:2:0
Bit depth : 8 bits
Scan type : Progressive
Bits/(Pixel*Frame) : 0.241
Stream size : 2.97 GiB (75%)
Title : ~Ranvijay~
Language : English
Default : Yes
Forced : No

Audio #1
ID : 4
Format : AC-3
Format/Info : Audio Coding 3
Format settings, Endianness : Big
Codec ID : A_AC3
Duration : 1 h 49 min
Bit rate mode : Constant
Bit rate : 640 kb/s
Channel(s) : 6 channels
Channel positions : Front: L C R, Side: L R, LFE
Sampling rate : 48.0 kHz
Frame rate : 31.250 FPS (1536 SPF)
Bit depth : 16 bits
Compression mode : Lossy
Stream size : 499 MiB (12%)
Title : ~Ranvijay~
Language : Hindi
Service kind : Complete Main
Default : Yes
Forced : No

Audio #2
ID : 5
Format : AC-3
Format/Info : Audio Coding 3
Format settings, Endianness : Big
Codec ID : A_AC3
Duration : 1 h 49 min
Bit rate mode : Constant
Bit rate : 640 kb/s
Channel(s) : 6 channels
Channel positions : Front: L C R, Side: L R, LFE
Sampling rate : 48.0 kHz
Frame rate : 31.250 FPS (1536 SPF)
Bit depth : 16 bits
Compression mode : Lossy
Stream size : 499 MiB (12%)
Title : ~Ranvijay~
Language : English
Service kind : Complete Main
Default : No
Forced : No

Text #1
ID : 2
Format : PGS
Muxing mode : zlib
Codec ID : S_HDMV/PGS
Codec ID/Info : Picture based subtitle format used on BDs/HD-DVDs
Duration : 1 h 41 min
Bit rate : 9 050 b/s
Count of elements : 2306
Stream size : 6.58 MiB (0%)
Title : ~Ranvijay~
Language : English
Default : No
Forced : No

Text #2
ID : 3
Format : PGS
Muxing mode : zlib
Codec ID : S_HDMV/PGS
Codec ID/Info : Picture based subtitle format used on BDs/HD-DVDs
Duration : 1 h 41 min
Bit rate : 10.1 kb/s
Count of elements : 2568
Stream size : 7.33 MiB (0%)
Title : ~Ranvijay~
Language : English
Default : No
Forced : No

Text #3
ID : 6
Format : PGS
Muxing mode : zlib
Codec ID : S_HDMV/PGS
Codec ID/Info : Picture based subtitle format used on BDs/HD-DVDs
Duration : 1 h 38 min
Bit rate : 96 b/s
Count of elements : 32
Stream size : 69.4 KiB (0%)
Title : ~Ranvijay~
Language : Hindi
Default : No
Forced : No

Text #4
ID : 7
Format : UTF-8
Codec ID : S_TEXT/UTF8
Codec ID/Info : UTF-8 Plain Text
Duration : 2 s 0 ms
Bit rate : 3 048 b/s
Count of elements : 1
Stream size : 762 Bytes (0%)
Default : Yes
Forced : No

Please Login / Register to view the Link
Please Login / Register to view the Link
Please Login / Register to view the Link
Please Login / Register to view the Link
Please Login / Register to view the Link
Please Login / Register to view the Link
Please Login / Register to view the Link
Please Login / Register to view the Link
Please Login / Register to view the Link
Please Login / Register to view the Link
Please Login / Register to view the Link
Please Login / Register to view the Link
Please Login / Register to view the Link
Please Login / Register to view the Link
Please Login / Register to view the Link
Please Login / Register to view the Link



Image
Buy Premium Account From My Download Links And Get Resumable Support & SUPER Fastest Speed
Code: 
Please Login / Register to view the Link
http://rapidpaid.com/b6e249c75e5e9c6e/The_Sorcerers_Apprentice_2010_720p_BRRip__x264_Dual_Audio_[Hindi_+_English]_DD_5.0_-_Msubs_~_Ranvijay_(1).mkv


Image
By Advertisement Bot
#...?