Post English Movies Dubbed in Hindi Here
#4763021
Image


Format : Matroska
Format version : Version 4 / Version 2
File size : 4.19 GiB
Duration : 3 h 14 min
Overall bit rate : 3 076 kb/s
Movie name : Titanic (1997) 720p BluRay x264 Multi [Hindi + Eng + Tamil + Telugu] DD 5.1 Ch - MSubs ~ Ranvijay

Video
ID : 1
Format : AVC
Format settings, CABAC : Yes
Format settings, RefFrames : 4 frames
Codec ID : V_MPEG4/ISO/AVC
Duration : 3 h 14 min
Bit rate : 1 500 kb/s
Width : 1 280 pixels
Height : 544 pixels
Display aspect ratio : 2.35:1
Frame rate mode : Constant
Frame rate : 23.976 (23976/1000) FPS
Color space : YUV
Chroma subsampling : 4:2:0
Bit depth : 8 bits
Scan type : Progressive
Bits/(Pixel*Frame) : 0.090
Stream size : 2.04 GiB (49%)
Title : ~Ranvijay~
Default : Yes
Forced : No

Audio #1
ID : 2
Format : AC-3
Format/Info : Audio Coding 3
Format settings, Endianness : Big
Codec ID : A_AC3
Duration : 3 h 14 min
Bit rate mode : Constant
Bit rate : 448 kb/s
Channel(s) : 6 channels
Channel positions : Front: L C R, Side: L R, LFE
Sampling rate : 48.0 kHz
Frame rate : 31.250 FPS (1536 SPF)
Bit depth : 16 bits
Compression mode : Lossy
Stream size : 624 MiB (15%)
Title : ~Ranvijay~
Language : Hindi
Service kind : Complete Main
Default : Yes
Forced : No

Audio #2
ID : 3
Format : AAC
Format/Info : Advanced Audio Codec
Format profile : LC
Codec ID : A_AAC-2
Duration : 3 h 14 min
Bit rate : 224 kb/s
Channel(s) : 6 channels
Channel positions : Front: L C R, Side: L R, LFE
Sampling rate : 48.0 kHz
Frame rate : 46.875 FPS (1024 SPF)
Compression mode : Lossy
Stream size : 312 MiB (7%)
Title : ~Ranvijay~
Language : English
Default : No
Forced : No

Audio #3
ID : 4
Format : AC-3
Format/Info : Audio Coding 3
Format settings, Endianness : Big
Codec ID : A_AC3
Duration : 3 h 14 min
Bit rate mode : Constant
Bit rate : 448 kb/s
Channel(s) : 6 channels
Channel positions : Front: L C R, Side: L R, LFE
Sampling rate : 48.0 kHz
Frame rate : 31.250 FPS (1536 SPF)
Bit depth : 16 bits
Compression mode : Lossy
Stream size : 624 MiB (15%)
Title : ~Ranvijay~
Language : Tamil
Service kind : Complete Main
Default : No
Forced : No

Audio #4
ID : 5
Format : AC-3
Format/Info : Audio Coding 3
Format settings, Endianness : Big
Codec ID : A_AC3
Duration : 3 h 14 min
Bit rate mode : Constant
Bit rate : 448 kb/s
Channel(s) : 6 channels
Channel positions : Front: L C R, Side: L R, LFE
Sampling rate : 48.0 kHz
Frame rate : 31.250 FPS (1536 SPF)
Bit depth : 16 bits
Compression mode : Lossy
Stream size : 624 MiB (15%)
Title : ~Ranvijay~
Language : Telugu
Service kind : Complete Main
Default : No
Forced : No

Text #1
ID : 6
Format : PGS
Muxing mode : zlib
Codec ID : S_HDMV/PGS
Codec ID/Info : Picture based subtitle format used on BDs/HD-DVDs
Duration : 3 h 12 min
Bit rate : 1 650 b/s
Count of elements : 783
Stream size : 2.27 MiB (0%)
Title : ~Ranvijay~
Language : English
Default : No
Forced : No

Text #2
ID : 7
Format : PGS
Muxing mode : zlib
Codec ID : S_HDMV/PGS
Codec ID/Info : Picture based subtitle format used on BDs/HD-DVDs
Duration : 3 h 12 min
Bit rate : 12.9 kb/s
Count of elements : 4208
Stream size : 17.8 MiB (0%)
Title : ~Ranvijay~
Language : English
Default : No
Forced : No

Text #3
ID : 8
Format : PGS
Muxing mode : zlib
Codec ID : S_HDMV/PGS
Codec ID/Info : Picture based subtitle format used on BDs/HD-DVDs
Duration : 3 h 4 min
Bit rate : 71 b/s
Count of elements : 14
Stream size : 95.8 KiB (0%)
Title : ~Ranvijay~
Language : Hindi
Default : No
Forced : No

Text #4
ID : 9
Format : PGS
Muxing mode : zlib
Codec ID : S_HDMV/PGS
Codec ID/Info : Picture based subtitle format used on BDs/HD-DVDs
Duration : 3 h 4 min
Bit rate : 107 b/s
Count of elements : 14
Stream size : 145 KiB (0%)
Title : ~Ranvijay~
Language : Tamil
Default : No
Forced : No

Text #5
ID : 10
Format : PGS
Muxing mode : zlib
Codec ID : S_HDMV/PGS
Codec ID/Info : Picture based subtitle format used on BDs/HD-DVDs
Duration : 3 h 4 min
Bit rate : 56 b/s
Count of elements : 12
Stream size : 76.3 KiB (0%)
Title : ~Ranvijay~
Language : Telugu
Default : No
Forced : No


Please Login / Register to view the Link
Please Login / Register to view the Link
Please Login / Register to view the Link
Please Login / Register to view the Link
Please Login / Register to view the Link
Please Login / Register to view the Link
Please Login / Register to view the Link
Please Login / Register to view the Link
Please Login / Register to view the Link
Please Login / Register to view the Link
Please Login / Register to view the Link
Please Login / Register to view the Link
Please Login / Register to view the Link
Please Login / Register to view the Link
Please Login / Register to view the Link
Please Login / Register to view the Link
Please Login / Register to view the Link
Please Login / Register to view the Link
Please Login / Register to view the Link


Image
Buy Premium Account From My Download Links And Get Resumable Support & SUPER Fastest Speed
Code: 
Please Login / Register to view the Link
http://rapidpaid.com/ef543b39565f297f/Titanic_(1997)_720p_BluRay_x264_Multi_[Hindi_+_Eng_+_Tamil_+_Telugu]_DD_5.1_Ch_-_MSubs_~_Ranvijay.mkv


Image
By Advertisement Bot
#...?