Post English Movies Dubbed in Hindi Here
#4758812
Image


Code: 
Please Login / Register to view the Link
Movie Encode From Full BD/BDREMUX

Pete's Dragon 2016 1080p BluRay Dual Audio Hindi DD 2.0 English DTS 6CH MAVI

Join Us Now

Join Us Now FaceBook

Org Bluray Audio Source

Movie Name : *Pete's Dragon (2016)
IMDB Link : www.imdb.com/title/tt2788732/
Runtime : 1.42 Min
Audio : English DD 5.1/Hindi DD 2.0(Dr.Star Thanks)
Subtitle : English PGS
Size : 4.07GB


Sample Include in torrent


Video
ID : 1
Format : AVC
Format/Info : Advanced Video Codec
Format profile : High@L4.2
Format settings : CABAC / 4 Ref Frames
Format settings, CABAC : Yes
Format settings, RefFrames : 4 frames
Codec ID : V_MPEG4/ISO/AVC
Duration : 1 h 42 min
Bit rate : 4 500 kb/s
Width : 1 920 pixels
Height : 804 pixels
Display aspect ratio : 2.40:1
Frame rate mode : Constant
Frame rate : 23.976 (24000/1001) FPS
Color space : YUV
Chroma subsampling : 4:2:0
Bit depth : 8 bits
Scan type : Progressive
Bits/(Pixel*Frame) : 0.122
Stream size : 3.23 GiB (79%)
Title : Pete's Dragon 2016 1080p BluRay Dual Audio Hindi DD 2.0 English DTS 6CH MAVI
Language : English
Default : Yes
Forced : No
Color range : Limited
Color primaries : BT.709
Transfer characteristics : BT.709
Matrix coefficients : BT.709

Audio #1
ID : 2
Format : AC-3
Format/Info : Audio Coding 3
Mode : Dolby Digital
Format settings, Endianness : Big
Codec ID : A_AC3
Duration : 1 h 42 min
Bit rate mode : Constant
Bit rate : 384 kb/s
Channel(s) : 2 channels
Channel positions : Front: L R
Sampling rate : 48.0 kHz
Frame rate : 31.250 FPS (1536 SPF)
Bit depth : 16 bits
Compression mode : Lossy
Stream size : 282 MiB (7%)
Title : Hindi-DTH-DD-2.0-384kbps
Language : Hindi
Service kind : Complete Main
Default : Yes
Forced : No

Audio #2
ID : 3
Format : DTS
Format/Info : Digital Theater Systems
Mode : 16
Format settings, Endianness : Big
Codec ID : A_DTS
Duration : 1 h 42 min
Bit rate mode : Constant
Bit rate : 755 kb/s
Channel(s) : 6 channels
Channel positions : Front: L C R, Side: L R, LFE
Sampling rate : 48.0 kHz
Frame rate : 93.750 FPS (512 SPF)
Bit depth : 24 bits
Compression mode : Lossy
Stream size : 554 MiB (13%)
Title : English-DTS-5.1-768kbps
Language : English
Default : No
Forced : No

Text #1
ID : 4
Format : PGS
Muxing mode : zlib
Codec ID : S_HDMV/PGS
Codec ID/Info : Picture based subtitle format used on BDs/HD-DVDs
Duration : 1 h 41 min
Bit rate : 28.0 kb/s
Count of elements : 2462
Stream size : 20.3 MiB (0%)
Title : English-SDH-PGS
Language : English
Default : No
Forced : No

Text #2
ID : 5
Format : PGS
Muxing mode : zlib
Codec ID : S_HDMV/PGS
Codec ID/Info : Picture based subtitle format used on BDs/HD-DVDs
Duration : 1 h 39 min
Bit rate : 91.1 kb/s
Count of elements : 4556
Stream size : 65.0 MiB (2%)
Title : English-COMENTARY-PGS
Language : English
Default : No
Forced : No

Menu
00:00:00.000 : en:Chapter 01
00:06:03.988 : en:Chapter 02
00:09:46.669 : en:Chapter 03
00:15:20.127 : en:Chapter 04
00:21:28.495 : en:Chapter 05
00:30:23.446 : en:Chapter 06
00:36:57.965 : en:Chapter 07
00:44:03.057 : en:Chapter 08
00:52:28.061 : en:Chapter 09
00:56:42.565 : en:Chapter 10
01:03:13.831 : en:Chapter 11
01:10:07.077 : en:Chapter 12
01:17:17.507 : en:Chapter 13
01:26:46.034 : en:Chapter 14
01:32:26.749 : en:Chapter 15
01:35:01.362 : en:Chapter 16


Image
Image
Image
Image
Image
Image
Image
Image
Image
Image

Image
Buy Premium Account From My Download Links And Get Resumable Support & SUPER Fastest Speed
Code: 
Please Login / Register to view the Link
http://rapidpaid.com/156200bbca235cf8/Pete_s_Dragon_2016_1080p_BluRay_Dual_Audio_Hindi_DD_2.0_English_DTS_6CH_MAVI.mkv


Image
By Advertisement Bot
#...?