Post English Movies Dubbed in Hindi Here
#4758746
Image


Code: 
Please Login / Register to view the Link
Video
ID : 1
Format : AVC
Format/Info : Advanced Video Codec
Format profile : High@L3.1
Format settings, CABAC : Yes
Format settings, ReFrames : 5 frames
Codec ID : V_MPEG4/ISO/AVC
Duration : 1h 44mn
Bit rate : 899 Kbps
Width : 1 280 pixels
Height : 720 pixels
Display aspect ratio : 16:9
Frame rate mode : Constant
Frame rate : 23.976 fps
Color space : YUV
Chroma subsampling : 4:2:0
Bit depth : 8 bits
Scan type : Progressive
Bits/(Pixel*Frame) : 0.041
Stream size : 653 MiB (65%)
Title : rajatmathur@Hon3yHD

Audio #1
ID : 2
Format : AC-3
Format/Info : Audio Coding 3
Mode extension : CM (complete main)
Format settings, Endianness : Big
Codec ID : A_AC3
Duration : 1h 44mn
Bit rate mode : Constant
Bit rate : 224 Kbps
Channel(s) : 6 channels
Channel positions : Front: L C R, Side: L R, LFE
Sampling rate : 48.0 KHz
Bit depth : 16 bits
Compression mode : Lossy
Stream size : 168 MiB (17%)
Title : rajatmathur@Hon3yHD
Language : English
Default : No
Forced : No

Audio #2
ID : 3
Format : AC-3
Format/Info : Audio Coding 3
Mode extension : CM (complete main)
Format settings, Endianness : Big
Codec ID : A_AC3
Duration : 1h 44mn
Bit rate mode : Constant
Bit rate : 224 Kbps
Channel(s) : 6 channels
Channel positions : Front: L C R, Side: L R, LFE
Sampling rate : 48.0 KHz
Bit depth : 16 bits
Compression mode : Lossy
Stream size : 168 MiB (17%)
Title : rajatmathur@Hon3yHD
Language : Hindi
Default : Yes
Forced : No


Please Login / Register to view the Link
Please Login / Register to view the Link
Please Login / Register to view the Link
Please Login / Register to view the Link
Please Login / Register to view the Link
Please Login / Register to view the Link
Please Login / Register to view the Link
Please Login / Register to view the Link


Image

Code: 
Please Login / Register to view the Link
http://rapidpaid.com/0ff05fd2f62ebaaa/Drive_Angry_(2011)_BluRay_720p_x264_Dual_Audio_[English_5.1_+_Hindi_5.1]_AC3_rajatmathur.mkv


Image
By Advertisement Bot
#...?