Post English Movies Dubbed in Hindi Here
#4758481
Image

Plot:-

25 years ago, a group of female agents went undercover in a five-star hotel in Bangkok to investigate international terrorist, Gu Zhi Jin. An accidental explosion at the hotel killed many of the agents except the leader, Madam Fong, and the target. In present time, Madam Fong meets a group of girls and trains them as her apprentices. She is now on a mission to capture the terrorist she missed 25 years ago.


Code: 
Please Login / Register to view the Link
Format : Matroska
Format version : Version 4 / Version 2
File size : 748 MiB
Duration : 1 h 42 min
Overall bit rate : 1 024 kb/s

Video
ID : 1
Format : AVC
Format/Info : Advanced Video Codec
Format profile : High@L4.1
Format settings, CABAC : Yes
Format settings, ReFrames : 5 frames
Codec ID : V_MPEG4/ISO/AVC
Duration : 1 h 42 min
Bit rate : 893 kb/s
Width : 1 280 pixels
Height : 546 pixels
Display aspect ratio : 2.35:1
Frame rate mode : Constant
Frame rate : 24.000 FPS
Color space : YUV
Chroma subsampling : 4:2:0
Bit depth : 8 bits
Scan type : Progressive
Bits/(Pixel*Frame) : 0.053
Stream size : 652 MiB (87%)
Title : DiCT
Writing library : x264 core 148 r2638 7599210
Default : Yes
Forced : No

Audio
ID : 2
Format : AAC
Format/Info : Advanced Audio Codec
Format profile : LC
Codec ID : A_AAC
Duration : 1 h 42 min
Bit rate : 129 kb/s
Channel(s) : 2 channels
Channel positions : Front: L R
Title : DiCT
Language : Hindi
Default : Yes
Forced : No

Text
ID : 3
Format : UTF-8
Codec ID : S_TEXT/UTF8
Codec ID/Info : UTF-8 Plain Text
Duration : 1 h 38 min
Bit rate : 47 b/s
Count of elements : 1319
Stream size : 34.0 KiB (0%)
Title : DiCT
Default : Yes
Forced : No


Please Login / Register to view the Link
Please Login / Register to view the Link
Please Login / Register to view the Link
Please Login / Register to view the Link
Please Login / Register to view the Link
Please Login / Register to view the Link
Please Login / Register to view the Link
Please Login / Register to view the Link
Please Login / Register to view the Link
Please Login / Register to view the Link


Image

Code: 
Please Login / Register to view the Link
http://rapidpaid.com/1fba13d7625e230d/18+_Special_Female_Force_(2016)_720p_Unrated_BRRIP_Hindi-Dubbed_x264_750MB_E-SUBS_[DICT].mkv


Image
By Advertisement Bot
#...?