Movie which doesnt have mediafire link will be posted here
#5000389
Image



Code: 
Please Login / Register to view the Link
Format                                   : Matroska
Format version                           : Version 2
File size                                : 3.58 GiB
Duration                                 : 2 h 4 min
Overall bit rate                         : 4 113 kb/s
Movie name                               : Tu Hai Mera Sunday
Genre                                    : Comedy,Drama
Encoded date                             : UTC 2018-03-04 14:02:33
Writing application                      : mkvmerge v19.0.0 ('Brave Captain') 64-bit
Writing library                          : libebml v1.3.5 + libmatroska v1.4.8
Country                                  : India
Comment                                  : Five friends struggle to find a place to play football in Mumbai.
ARTIST                                   : Barun Sobti,Shahana Goswami,Pallavi Batra,Meher Acharia-Dar,Suhaas Ahuja,Nakul Bhalla,Maanvi Gagroo,Rama Joshi,Vishal Malhotra,Sandiip Sikcand,Shiv Subramaniam,Avinash Tiwary,Jay Upadhyay
IMDB ID                                  : tt4990516
ITUNESMEDIATYPE                          : Movie
ITUNESPODCASTDESC                        : Five friends struggle to find a place to play football in Mumbai.
Language                                 : Hindi
ReleaseDate                              : 2017-10-06
Year                                     : 2017-10-06

Video
ID                                       : 1
Format                                   : AVC
Format/Info                              : Advanced Video Codec
Format profile                           : Main@L4
Format settings                          : CABAC / 2 Ref Frames
Format settings, CABAC                   : Yes
Format settings, RefFrames               : 2 frames
Format settings, GOP                     : M=1, N=12
Codec ID                                 : V_MPEG4/ISO/AVC
Duration                                 : 2 h 4 min
Bit rate                                 : 3 727 kb/s
Width                                    : 1 920 pixels
Height                                   : 1 080 pixels
Display aspect ratio                     : 16:9
Frame rate mode                          : Constant
Frame rate                               : 24.000 FPS
Color space                              : YUV
Chroma subsampling                       : 4:2:0
Bit depth                                : 8 bits
Scan type                                : Progressive
Bits/(Pixel*Frame)                       : 0.075
Stream size                              : 3.24 GiB (91%)
Default                                  : Yes
Forced                                   : No

Audio
ID                                       : 2
Format                                   : AC-3
Format/Info                              : Audio Coding 3
Format settings, Endianness              : Big
Codec ID                                 : A_AC3
Duration                                 : 2 h 4 min
Bit rate mode                            : Constant
Bit rate                                 : 384 kb/s
Channel(s)                               : 6 channels
Channel positions                        : Front: L C R, Side: L R, LFE
Sampling rate                            : 48.0 kHz
Frame rate                               : 31.250 FPS (1536 SPF)
Bit depth                                : 16 bits
Compression mode                         : Lossy
Stream size                              : 342 MiB (9%)
Title                                    : DTOne
Language                                 : Hindi
Service kind                             : Complete Main
Default                                  : Yes
Forced                                   : No

Text
ID                                       : 3
Format                                   : UTF-8
Codec ID                                 : S_TEXT/UTF8
Codec ID/Info                            : UTF-8 Plain Text
Duration                                 : 2 h 2 min
Bit rate                                 : 45 b/s
Count of elements                        : 1390
Stream size                              : 40.9 KiB (0%)
Title                                    : DTOne
Language                                 : English
Default                                  : Yes
Forced                                   : Yes


ImageImageImageImageImageImage

SINGLE DIRECT FAST LINKS
Code: 
Please Login / Register to view the Link
http://www.heroupload.us/cb3c0e5b3eeee28c/Tu.Hai.Mera.Sunday.2017.1080p.NF.WEBHD.DD5.1.ESub-DUS.mkv


Code: 
Please Login / Register to view the Link
http://filefloater.com/7jj/Tu.Hai.Mera.Sunday.2017.1080p.NF.WEBHD.DD5.1.ESub-DUS.mkv

1GB LINKS

Code: 
Please Login / Register to view the Link
http://www.heroupload.us/42558628f54b3b9e/Tu.Hai.Mera.Sunday.2017.1080p.NF.WEBHD.DD5.1.ESub-DUS.part1.rar
http://www.heroupload.us/8c4d1e3b443770df/Tu.Hai.Mera.Sunday.2017.1080p.NF.WEBHD.DD5.1.ESub-DUS.part2.rar
http://www.heroupload.us/02d652e9dd941e5a/Tu.Hai.Mera.Sunday.2017.1080p.NF.WEBHD.DD5.1.ESub-DUS.part3.rar
http://www.heroupload.us/0a1bef3ba5436504/Tu.Hai.Mera.Sunday.2017.1080p.NF.WEBHD.DD5.1.ESub-DUS.part4.rar


Code: 
Please Login / Register to view the Link
http://filefloater.com/7jk/Tu.Hai.Mera.Sunday.2017.1080p.NF.WEBHD.DD5.1.ESub-DUS.part1.rar
http://filefloater.com/7jl/Tu.Hai.Mera.Sunday.2017.1080p.NF.WEBHD.DD5.1.ESub-DUS.part2.rar
http://filefloater.com/7jm/Tu.Hai.Mera.Sunday.2017.1080p.NF.WEBHD.DD5.1.ESub-DUS.part3.rar
http://filefloater.com/7jn/Tu.Hai.Mera.Sunday.2017.1080p.NF.WEBHD.DD5.1.ESub-DUS.part4.rar