Movie which doesnt have mediafire link will be posted here
#5000243
Image



Code: 
Please Login / Register to view the Link
General
Format                      : MPEG-4
Format profile              : Base Media
Codec ID                    : isom (isom/iso2/avc1/mp41)
File size                   : 2.76 GiB
Duration                    : 1 h 26 min
Overall bit rate mode       : Constant
Overall bit rate            : 4 567 kb/s
Writing application         : Lavf57.75.100

Video
ID                          : 1
Format                      : AVC
Format/Info                 : Advanced Video Codec
Format profile              : Main@L4
Format settings, CABAC      : Yes
Format settings, RefFrames  : 1 frame
Format settings, GOP        : M=1, N=25
Codec ID                    : avc1
Codec ID/Info               : Advanced Video Coding
Duration                    : 1 h 26 min
Bit rate mode               : Constant
Bit rate                    : 4 500 kb/s
Width                       : 1 920 pixels
Height                      : 1 080 pixels
Display aspect ratio        : 16:9
Frame rate mode             : Constant
Frame rate                  : 25.000 FPS
Color space                 : YUV
Chroma subsampling          : 4:2:0
Bit depth                   : 8 bits
Scan type                   : Progressive
Bits/(Pixel*Frame)          : 0.087
Stream size                 : 2.72 GiB (99%)

Audio
ID                          : 2
Format                      : AAC
Format/Info                 : Advanced Audio Codec
Format profile              : LC
Codec ID                    : 40
Duration                    : 1 h 26 min
Bit rate mode               : Constant
Bit rate                    : 61.4 kb/s
Channel(s)                  : 2 channels
Channel positions           : Front: L R
Sampling rate               : 48.0 kHz
Frame rate                  : 46.875 FPS (1024 SPF)
Compression mode            : Lossy
Stream size                 : 37.9 MiB (1%)
Default                     : Yes
Alternate group             : 1



Image
Image
Image
Image
Image
Image
Image
Image



SINGLE DIRECT FAST LINKS
Code: 
Please Login / Register to view the Link
http://www.heroupload.us/3895a42885b7bfff/Monsoon.Shootout.2018.1080p.UntoucheD.WEB_HD.AVC.AAC-IcTV.Fix.rar


Code: 
Please Login / Register to view the Link
http://filefloater.com/7ji/Monsoon.Shootout.2018.1080p.UntoucheD.WEB_HD.AVC.AAC-IcTV.Fix.rar

700MB LINKS
Code: 
Please Login / Register to view the Link
http://www.heroupload.us/0c995353b07c8b24/Monsoon.Shootout.2018.1080p.UntoucheD.WEB-HD.AVC.AAC-Team.IcTv.Exclusive.part1.rar
http://www.heroupload.us/35edc131e9ccf4eb/Monsoon.Shootout.2018.1080p.UntoucheD.WEB-HD.AVC.AAC-Team.IcTv.Exclusive.part2.rar
http://www.heroupload.us/c02164c18f338a47/Monsoon.Shootout.2018.1080p.UntoucheD.WEB-HD.AVC.AAC-Team.IcTv.Exclusive.part3.rar
http://www.heroupload.us/7155a380797ff002/Monsoon.Shootout.2018.1080p.UntoucheD.WEB-HD.AVC.AAC-Team.IcTv.Exclusive.part4.rar
http://www.heroupload.us/172bdbb35b3cf340/Monsoon.Shootout.2018.1080p.UntoucheD.WEB-HD.AVC.AAC-Team.IcTv.Exclusive.part5.rar


Code: 
Please Login / Register to view the Link
http://filefloater.com/9R9/Monsoon.Shootout.2018.1080p.UntoucheD.WEB-HD.AVC.AAC-Team.IcTv.Exclusive.part1.rar
http://filefloater.com/css/Monsoon.Shootout.2018.1080p.UntoucheD.WEB-HD.AVC.AAC-Team.IcTv.Exclusive.part2.rar
http://filefloater.com/csu/Monsoon.Shootout.2018.1080p.UntoucheD.WEB-HD.AVC.AAC-Team.IcTv.Exclusive.part3.rar
http://filefloater.com/csx/Monsoon.Shootout.2018.1080p.UntoucheD.WEB-HD.AVC.AAC-Team.IcTv.Exclusive.part4.rar
http://filefloater.com/csy/Monsoon.Shootout.2018.1080p.UntoucheD.WEB-HD.AVC.AAC-Team.IcTv.Exclusive.part5.rar