Movie which doesnt have mediafire link will be posted here
#4787265
Image


Format : Matroska
Format version : Version 4 / Version 2
File size : 3.03 GiB
Duration : 1 h 37 min
Overall bit rate : 4 476 kb/s
Encoded date : UTC 2017-11-08 12:20:28
Writing application : mkvmerge v15.0.0 ('Duel with the Devil') 64-bit
Writing library : libebml v1.3.5 + libmatroska v1.4.5

Video
ID : 1
Format : AVC
Format/Info : Advanced Video Codec
Format profile : Main@L3.1
Format settings : CABAC / 2 Ref Frames
Format settings, CABAC : Yes
Format settings, RefFrames : 2 frames
Format settings, GOP : M=1, N=12
Codec ID : V_MPEG4/ISO/AVC
Duration : 1 h 37 min
Bit rate : 4 379 kb/s
Width : 1 280 pixels
Height : 720 pixels
Display aspect ratio : 16:9
Frame rate mode : Constant
Frame rate : 24.000 FPS
Color space : YUV
Chroma subsampling : 4:2:0
Bit depth : 8 bits
Scan type : Progressive
Bits/(Pixel*Frame) : 0.198
Stream size : 2.97 GiB (98%)
Default : Yes
Forced : No

Audio
ID : 2
Format : AAC
Format/Info : Advanced Audio Codec
Format profile : HE-AAC / LC
Format settings : Implicit
Codec ID : A_AAC-2
Duration : 1 h 37 min
Bit rate : 96.0 kb/s
Channel(s) : 2 channels
Channel positions : Front: L R
Sampling rate : 48.0 kHz / 24.0 kHz
Frame rate : 23.438 FPS (1024 SPF)
Compression mode : Lossy
Stream size : 65.7 MiB (2%)
Default : Yes
Forced : No


Please Login / Register to view the Link

Please Login / Register to view the Link

Please Login / Register to view the Link

Please Login / Register to view the Link

Please Login / Register to view the Link

Please Login / Register to view the Link


Image
Buy Premium Account From My Download Links And Get Resumable Support & SUPER Fastest Speed
Code: 
Please Login / Register to view the Link
http://rapidpaid.com/b6ea46344b2f3b53/Autohead_(2016)_Untouched_720p_Netflix_WEBHD_Team_ExDR_Exclusive.mkv


Image
By Advertisement Bot
#...?