#1026261
Bleach -The DiamondDust Rebellion

Image

Image

Title : BLEACH ~The DiamondDust Rebellion~
Japanese Title : ??? BLEACH ~The DiamondDust Rebellion~ ????????
Official Site :
Code: 
Please Login / Register to view the Link
http://www.bleach-movie.com/index.html

Category : Movie
Total Episodes : -
Genres : Action, Fantasy
Year Published : 2007
Release Date : 2007-12-22 &??
Broadcaster : -
Studio : -
US Distribution : -

When an artifact known as the "King's Seal" is stolen during transport from Soul Society, Hitsugaya Toushirou is assigned to retrieve it. Toushirou goes missing after a battle with the thieves, leading Seireitei to suspect him of treachery. They order his immediate capture and execution. Unwilling to believe him capable of such a crime, Ichigo, Rangiku, Rukia, and Renji set out to find Toushirou and clear his name. Meanwhile, Toushirou is still searching for the thieves, and stumbles upon a dark secret involving a shinigami long since dead.


General
Format : AVI
Format/Info : Audio Video Interleave
Format profile : OpenDML
Format settings : rec
File size : 700 MiB
Duration : 1h 32mn
Overall bit rate : 1 056 Kbps
Writing application : Windows Movie Maker 2.1

Video
ID : 0
Format : AVC
Format/Info : Advanced Video Codec
Format profile : High@L5.1
Format settings, CABAC : Yes
Format settings, ReFrames : 3 frames
Codec ID : H264
Duration : 1h 32mn
Bit rate : 1 482 bps
Nominal bit rate : 924 Kbps
Width : 768 pixels
Height : 432 pixels
Display aspect ratio : 16:9
Frame rate : 23.976 fps
Color space : YUV
Chroma subsampling : 4:2:0
Bit depth : 8 bits
Scan type : Progressive
Bits/(Pixel*Frame) : 0.000
Stream size : 1 006 KiB (0%)
Writing library : x264 core 60 r889bm 2c59717
Encoding settings : cabac=1 / ref=1 / deblock=1:0:0 / analyse=0x3:0x113 / me=hex / subme=5 / brdo=0 / mixed_ref=0 / me_range=16 / chroma_me=1 / trellis=1 / 8x8dct=1 / cqm=0 / deadzone=21,11 / chroma_qp_offset=0 / threads=3 / nr=0 / decimate=1 / mbaff=0 / bframes=2 / b_pyramid=1 / b_adapt=1 / b_bias=0 / direct=1 / wpredb=1 / bime=1 / keyint=250 / keyint_min=25 / scenecut=40(pre) / rc=2pass / bitrate=924 / ratetol=1.0 / rceq='blurCplx^(1-qComp)' / qcomp=1.00 / qpmin=10 / qpmax=51 / qpstep=4 / cplxblur=20.0 / qblur=0.5 / ip_ratio=1.40 / pb_ratio=1.30 / aq=2:1.00

Audio
ID : 1
Format : MPEG Audio
Format version : Version 1
Format profile : Layer 3
Mode : Joint stereo
Mode extension : MS Stereo
Codec ID : 55
Codec ID/Hint : MP3
Duration : 1h 32mn
Bit rate mode : Constant
Bit rate : 128 Kbps
Channel(s) : 2 channels
Sampling rate : 48.0 KHz
Compression mode : Lossy
Stream size : 70.5 KiB (0%)
Alignment : Aligned on interleaves
Interleave, duration : 391 ms (9.36 video frames)
Interleave, preload duration : 216 ms
Title : reballion T02 2_0ch 224Kbps DELAY 0ms


Image
Image

All Links are Interchangeables

Image


Code: 
Please Login / Register to view the Link
http://www.filesonic.com/file/3254015835

http://www.fileserve.com/file/Y7APZHU

http://www.wupload.com/file/2054656867


Image
By Advertisement Bot
#...?