Page 1 of 1

Dragon Ball Z [Plan to Eradicate the Super Saiyans-2011]720p

PostPosted:27 May 2015, 09:13
by V3GITA
Dragon Ball Z [Plan to Eradicate the Super Saiyans-2011] English Dub 720p AVC AAC 290MB
.......................................................................


Image


Image


Please Login / Register to view the Link



Complete name..............: Dragon Ball Z [Plan to Eradicate the Super Saiyans-2011] English Dub 720p AVC AAC 290MB [Doridro.com].mp4
Format............................: MPEG-4
Format profile......................: Base Media / Version 2
Codec ID..........................: mp42
File size..........................: 287 MiB
Duration..........................: 26mn 58s
Overall bit rate mode................: Variable
Overall bit rate....................: 1 490 Kbps


Video
ID : 1
Format : AVC
Format/Info : Advanced Video Codec
Format profile : High@L3.1
Format settings, CABAC : Yes
Format settings, ReFrames : 1 frame
Codec ID : avc1
Codec ID/Info : Advanced Video Coding
Duration : 26mn 58s
Bit rate : 1 295 Kbps
Maximum bit rate : 4 312 Kbps
Width : 1 280 pixels
Height : 720 pixels
Display aspect ratio : 16:9
Frame rate mode : Constant
Frame rate : 29.970 fps
Color space : YUV
Chroma subsampling : 4:2:0
Bit depth : 8 bits
Scan type : Progressive
Bits/(Pixel*Frame) : 0.047
Stream size : 250 MiB (87%)

Audio
ID : 2
Format : AAC
Format/Info : Advanced Audio Codec
Format profile : LC
Codec ID : 40
Duration : 26mn 58s
Bit rate mode : Variable
Bit rate : 192 Kbps
Maximum bit rate : 202 Kbps
Channel(s) : 2 channels
Channel positions : Front: L R
Sampling rate : 44.1 KHz
Compression mode : Lossy
Stream size : 37.0 MiB (13%)
Title : IsoMedia File Produced by Google, 5-11-2011
Language : English





Image

Image



Image


Sample

Code: 
Please Login / Register to view the Link
http://ozofiles.com/cmigyo7md98f




....................................................

Please Login / Register to view the Link

Please Login / Register to view the Link

Please Login / Register to view the Link

Please Login / Register to view the Link

Please Login / Register to view the Link


....................................................