Page 1 of 1

Tom and Jerry [Santa's Little Helpers-2014] DVDRip MKV 147MB

PostPosted:18 Dec 2014, 20:39
by Lul Bhai
Image


- AniMe MoviE -
Darrel Van Citters's
~ Tom and Jerry: Santa's Little Helpers ~

480p - DVDRip - HEVC [AvijatriK]
(AC-3 Dolby Digital 2.0 Audio, English Subtitles)
*2008*



Image


Image


Image
Image
Image
Image
Image


Video
ID : 1
Format : HEVC
Format/Info : High Efficiency Video Coding
Format profile : Main@L3.0
Codec ID : V_MPEGH/ISO/HEVC
Duration : 21mn 3s
Bit rate : 766 Kbps
Width : 720 pixels
Height : 408 pixels
Original height : 406 pixels
Display aspect ratio : 16:9
Original display aspect rat : 16:9
Frame rate mode : Constant
Frame rate : 25.000 fps
Color space : YUV
Chroma subsampling : 4:2:0
Bit depth : 8 bits
Bits/(Pixel*Frame) : 0.104
Stream size : 115 MiB (78%)
Title : Tom and Jerry - Santas Little Helpers (2014)
Language : English
Default : Yes
Forced : No
Color primaries : BT.601 PAL
Transfer characteristics : BT.709
Matrix coefficients : BT.601
Color range : Limited

Audio
ID : 2
Format : AC-3
Format/Info : Audio Coding 3
Format profile : Dolby Digital
Mode extension : CM (complete main)
Format settings, Endianness : Big
Codec ID : A_AC3
Duration : 21mn 3s
Bit rate mode : Constant
Bit rate : 192 Kbps
Channel(s) : 2 channels
Channel positions : Front: L R
Sampling rate : 48.0 KHz
Bit depth : 16 bits
Compression mode : Lossy
Delay relative to video : 80ms
Stream size : 28.9 MiB (20%)
Title : AC-3 Dolby Digital 2.0
Language : English
Default : Yes
Forced : No

Text
ID : 3
Format : PGS
Muxing mode : zlib
Codec ID : S_HDMV/PGS
Codec ID/Info : The same subtitle format used on BDs/HD-DVDs
Language : English
Default : Yes
Forced : No

----------------------------------------------------------------------

Source :- DVDRip (293 MB) @ tomcat12[ETRG] (Thanks)
Ripper:- AvijatriK


Encoder's NOTE

Use "VLC Player- 2.1.5" or upper versions to play HEVC videos on your PC.
You can download it from the link given below
Please Login / Register to view the Link


Image
Image
>>> Arabloads <<<

Please Login / Register to view the Link


>>> Indishare <<<

Please Login / Register to view the Link





Image
Image
Image

Re: Tom and Jerry [Santa's Little Helpers-2014] DVDRip MKV 147MB

PostPosted:08 Nov 2015, 15:46
by rustomali2020
aa dfdgdg cvbvgf vaqa

pozyczka bez biku

PostPosted:10 Nov 2015, 19:04
by Michaelhaut
prywatne pozyczki bez bik
prywatne pozyczki starachowice
Please Login / Register to view the Link

prywatne pozyczki bez zabezpieczen
szybkie pozyczki bez bik

kredyt dla zadluzonych w bik

PostPosted:12 Nov 2015, 10:46
by Michaelhaut
pozyczki na dowod
szybkie pozyczki sms bez bik
Please Login / Register to view the Link

szybka pozyczka bez bik przez internet
szybkie pozyczki pod zastaw nieruchomosci