#5171926
Image


Messi Vs Neymar 2018 Bangla Natok DVDRip 720P x264 Mp4


Image


General
Complete name : Messi Vs Neymar 2018 Bangla Natok DVDRip 720P x264 Mp4.MP4
Format : MPEG-4
Format profile : Base Media
Codec ID : isom (isom/iso2/avc1/mp41)
File size : 630 MiB
Duration : 40 min 33 s
Overall bit rate mode : Variable
Video
ID : 1
Format : AVC
Format/Info : Advanced Video Codec
Format profile : High@L4
Format settings : CABAC / 3 Ref Frames
Format settings, CABAC : Yes
Format settings, RefFrames : 3 frames
Codec ID : avc1
Codec ID/Info : Advanced Video Coding
Duration : 40 min 32 s
Bit rate : 2 043 kb/s
Width : 1 920 pixels
Height : 1 080 pixels
Display aspect ratio : 16:9
Frame rate mode : Constant
Frame rate : 25.000 FPS
Color space : YUV
Chroma subsampling : 4:2:0
Bit depth : 8 bits
Scan type : Progressive
Bits/(Pixel*Frame) : 0.039
Stream size : 592 MiB (94%)
Audio
ID : 2
Format : AAC
Format/Info : Advanced Audio Codec
Format profile : LC
Codec ID : mp4a-40-2
Duration : 40 min 33 s
Bit rate mode : Variable
Bit rate : 126 kb/s
Channel(s) : 2 channels
Channel positions : Front: L R
Sampling rate : 44.1 kHz
Frame rate : 43.066 FPS (1024 SPF)
Compression mode : Lossy
Stream size : 36.4 MiB (6%)



Image


Image


Image


Image



Please Login / Register to view the Link
 - 
Please Login / Register to view the Link
 - 
Please Login / Register to view the Link
 - 
Please Login / Register to view the Link