#5115899
Image

[size='large']MP4 Movie\Kacher Putul 2018 Bengali Short Film DVDRip 720P MP4[/size]


Image

General
Complete name : MP4 Movie\Kacher Putul 2018 Bengali Short Film DVDRip 720P MP4.mp4
Format : MPEG-4
Format profile : Base Media
File size : 163 MiB
Duration : 18 min 20 s
Overall bit rate mode : Variable
Overall bit rate : 1 245 kb/s
Encoded date : UTC 1970-01-01 00:00:00
Tagged date : UTC 1970-01-01 00:00:00
Writing application : Lavf52.94.0
Video
ID : 1
Format : AVC
Format/Info : Advanced Video Codec
Format profile : Main@L3.1
Format settings : CABAC / 2 Ref Frames
Format settings, CABAC : Yes
Format settings, RefFrames : 2 frames
Codec ID : avc1
Codec ID/Info : Advanced Video Coding
Duration : 18 min 20 s
Bit rate : 1 103 kb/s
Width : 1 280 pixels
Height : 720 pixels
Display aspect ratio : 16:9
Frame rate mode : Constant
Frame rate : 29.970 (30000/1001) FPS
Color space : YUV
Chroma subsampling : 4:2:0
Bit depth : 8 bits
Scan type : Progressive
Bits/(Pixel*Frame) : 0.040
Stream size : 141 MiB (86%)
Audio
ID : 2
Format : AAC
Format/Info : Advanced Audio Codec
Format profile : LC
Codec ID : mp4a-40-2
Duration : 18 min 20 s
Bit rate mode : Variable
Bit rate : 165 kb/s
Channel(s) : 2 channels
Channel positions : Front: L R
Sampling rate : 48.0 kHz
Frame rate : 46.875 FPS (1024 SPF)
Compression mode : Lossy
Stream size : 21.7 MiB (13%)


Image

Image

Image

Image


Please Login / Register to view the Link
 - 
Please Login / Register to view the Link
 - 
Please Login / Register to view the Link
 - 
Please Login / Register to view the Link