Enter Here To DownLoad Hindi Music Videos, Download Hindi Videos, Download Hindi video, Download Hindi video free, Download Hindi videos free, Download Hindi Songs videos
#6036455
Image



Code: 
Please Login / Register to view the Link
Media info
General
Format : Matroska
Format version : Version 4
File size : 1.30 GB
Overall bit rate mode : Variable
Overall bit rate : 4 828 kb/s
Encoded date : UTC 2019-09-19 15:43:46
Writing application : mkvmerge v36.0.0 ('Is That Jazz?') 64-bit
Writing library : libebml v1.3.9 + libmatroska v1.5.2

Video
ID : 1
Format : AVC
Format/Info : Advanced Video Codec
Format profile : [email protected]
Format settings : CABAC / 3 Ref Frames
Format settings, CABAC : Yes
Format settings, Reference frames : 3 frames
Codec ID : V_MPEG4/ISO/AVC
Bit rate mode : Variable
Bit rate : 4 186 kb/s
Maximum bit rate : 6 630 kb/s
Width : 1 920 pixels
Height : 1 080 pixels
Display aspect ratio : 16:9
Frame rate mode : Constant
Frame rate : 24.000 FPS
Color space : YUV
Chroma subsampling : 4:2:0
Bit depth : 8 bits
Scan type : Progressive
Bits/(Pixel*Frame) : 0.084
Stream size : 159 MiB (87%)
Default : Yes
Forced : No

Audio
ID : 2
Format : E-AC-3
Format/Info : Enhanced AC-3
Commercial name : Dolby Digital Plus
Codec ID : A_EAC3
Bit rate mode : Constant
Bit rate : 640 kb/s
Channel(s) : 6 channels
Channel layout : L R C LFE Ls Rs
Sampling rate : 48.0 kHz
Frame rate : 31.250 FPS (1536 SPF)
Compression mode : Lossy
Delay relative to video : 16 ms
Stream size : 24.3 MiB (13%)
Title : [By-DusIcTv]
Service kind : Complete Main
Default : Yes
Forced : No

Text #1
ID : 3
Format : UTF-8
Codec ID : S_TEXT/UTF8
Codec ID/Info : UTF-8 Plain Text
Bit rate : 52 b/s
Count of elements : 64
Stream size : 1.73 KiB (0%)
Title : [By-DusIcTv]
Language : German
Default : No
Forced : No

Text #2
ID : 4
Format : UTF-8
Codec ID : S_TEXT/UTF8
Codec ID/Info : UTF-8 Plain Text
Bit rate : 76 b/s
Count of elements : 52
Stream size : 2.54 KiB (0%)
Title : [By-DusIcTv]
Language : English
Default : No
Forced : No



Please Login / Register to view the Link
Please Login / Register to view the Link
Please Login / Register to view the Link
Please Login / Register to view the Link
Please Login / Register to view the Link
Please Login / Register to view the Link
Please Login / Register to view the Link
Please Login / Register to view the Link
Please Login / Register to view the Link
Please Login / Register to view the Link
Please Login / Register to view the Link
Please Login / Register to view the Link
Please Login / Register to view the Link
Please Login / Register to view the Link
Please Login / Register to view the Link
Please Login / Register to view the Link
Please Login / Register to view the Link
Please Login / Register to view the Link
Please Login / Register to view the Link
Please Login / Register to view the Link
Please Login / Register to view the Link
Please Login / Register to view the Link
Please Login / Register to view the Link
Please Login / Register to view the Link
Please Login / Register to view the Link
Please Login / Register to view the Link


SINGLE DIRECT FAST LINKS


Code: 
Please Login / Register to view the Link
https://www.heroupload.com/dc3e2cc87a97d297/01-Meri_Umar_Ke_Naujawano_[By-DusIcTv].mkv
https://www.heroupload.com/3bd916060ee6259a/02-Kaise_Hua_[By-DusIcTv].mkv
https://www.heroupload.com/891aa73e6a33da7b/03-Tera_Ban_Jaunga_1_[By-DusIcTv].mkv
https://www.heroupload.com/f226bea988ac6065/04-Tera_Ban_Jaunga_2_[By-DusIcTv].mkv
https://www.heroupload.com/529a1727a0c850be/05-Pehla_Pyaar_[By-DusIcTv].mkv
https://www.heroupload.com/8e6fee73d10bf816/06-Mere_Sohneya_1_[By-DusIcTv].mkv
https://www.heroupload.com/a8d588716fdbd44f/07-Bekhayali_[By-DusIcTv].mkv
https://www.heroupload.com/f8a34ef0f88a49fb/08-Yeh_Aaina_[By-DusIcTv].mkv
https://www.heroupload.com/04bb918c5994f34f/09-Tujhe_Kitna_Chahne_Lage_[By-DusIcTv].mkv
https://www.heroupload.com/f008b5ed11a2bfad/10-Mere_Sohneya_2_[By-DusIcTv].mkv