Enter Here To DownLoad Hindi Music Videos, Download Hindi Videos, Download Hindi video, Download Hindi video free, Download Hindi videos free, Download Hindi Songs videos
#6036442
Image



Code: 
Please Login / Register to view the Link
Media info
General
Format : Matroska
Format version : Version 4
File size : 1.13 GB
Overall bit rate mode : Variable
Overall bit rate : 7 928 kb/s
Encoded date : UTC 2019-09-27 15:10:52
Writing application : mkvmerge v36.0.0 ('Is That Jazz?') 32-bit
Writing library : libebml v1.3.9 + libmatroska v1.5.2

Video
ID : 1
Format : AVC
Format/Info : Advanced Video Codec
Format profile : [email protected]
Format settings : CABAC / 3 Ref Frames
Format settings, CABAC : Yes
Format settings, Reference frames : 3 frames
Codec ID : V_MPEG4/ISO/AVC
Bit rate mode : Variable
Bit rate : 7 286 kb/s
Maximum bit rate : 9 735 kb/s
Width : 1 920 pixels
Height : 1 080 pixels
Display aspect ratio : 16:9
Frame rate mode : Constant
Frame rate : 24.000 FPS
Color space : YUV
Chroma subsampling : 4:2:0
Bit depth : 8 bits
Scan type : Progressive
Bits/(Pixel*Frame) : 0.146
Stream size : 174 MiB (92%)
Default : Yes
Forced : No

Audio
ID : 2
Format : E-AC-3
Format/Info : Enhanced AC-3
Commercial name : Dolby Digital Plus
Codec ID : A_EAC3
Bit rate mode : Constant
Bit rate : 640 kb/s
Channel(s) : 6 channels
Channel layout : L R C LFE Ls Rs
Sampling rate : 48.0 kHz
Frame rate : 31.250 FPS (1536 SPF)
Compression mode : Lossy
Stream size : 15.3 MiB (8%)
Service kind : Complete Main
Default : Yes
Forced : No

Text
ID : 3
Format : UTF-8
Codec ID : S_TEXT/UTF8
Codec ID/Info : UTF-8 Plain Text
Bit rate : 192 b/s
Count of elements : 47
Stream size : 3.99 KiB (0%)
Title : English_Full
Language : English
Default : No
Forced : No


Please Login / Register to view the Link

Please Login / Register to view the Link

Please Login / Register to view the Link

Please Login / Register to view the Link

Please Login / Register to view the Link

Please Login / Register to view the Link

Please Login / Register to view the Link

Please Login / Register to view the Link

Please Login / Register to view the Link

Please Login / Register to view the Link

Please Login / Register to view the Link

Please Login / Register to view the Link

Please Login / Register to view the Link


SINGLE DIRECT FAST LINKS


Code: 
Please Login / Register to view the Link
https://www.heroupload.com/92e952aa9e85c18c/01-Aila_Re_[By-DusIcTv].mkv
https://www.heroupload.com/d02f88b3754fbc92/02-Udhal_Ho_[By-DusIcTv].mkv
https://www.heroupload.com/4e628cf01c6ea316/03-Nadh_Khula_[By-DusIcTv].mkv
https://www.heroupload.com/d86012dd64b633ea/04-Aai_Shapat_[By-DusIcTv].mkv
https://www.heroupload.com/2f5955e87d29a081/05-Kathai_Kathai_[By-DusIcTv].mkv
https://www.heroupload.com/e870c6e3a0e1f6a7/06-Zara_Suno_[By-DusIcTv].mkv
https://www.heroupload.com/44bd536bf616d47d/07-Ek_Malaal_[By-DusIcTv].mkv