Enter Here To DownLoad Hindi Music Videos, Download Hindi Videos, Download Hindi video, Download Hindi video free, Download Hindi videos free, Download Hindi Songs videos
#6036434
Image




Code: 
Please Login / Register to view the Link
General
Format : Matroska
Format version : Version 4
File size : 401 MB
Overall bit rate : 2 401 kb/s
Encoded date : UTC 2019-09-13 13:24:57
Writing application : mkvmerge v36.0.0 ('Is That Jazz?') 32-bit
Writing library : libebml v1.3.9 + libmatroska v1.5.2

Video
ID : 1
Format : AVC
Format/Info : Advanced Video Codec
Format profile : [email protected]
Format settings : CABAC / 6 Ref Frames
Format settings, CABAC : Yes
Format settings, Reference frames : 6 frames
Codec ID : V_MPEG4/ISO/AVC
Bit rate : 2 250 kb/s
Width : 1 920 pixels
Height : 1 080 pixels
Display aspect ratio : 16:9
Frame rate mode : Constant
Frame rate : 24.000 FPS
Color space : YUV
Chroma subsampling : 4:2:0
Bit depth : 8 bits
Scan type : Progressive
Bits/(Pixel*Frame) : 0.045
Stream size : 88.0 MiB (93%)
Default : Yes
Forced : No
Color range : Limited
Color primaries : BT.709
Transfer characteristics : BT.709
Matrix coefficients : BT.709

Audio
ID : 2
Format : AC-3
Format/Info : Audio Coding 3
Commercial name : Dolby Digital
Codec ID : A_AC3
Bit rate mode : Constant
Bit rate : 160 kb/s
Channel(s) : 2 channels
Channel layout : L R
Sampling rate : 48.0 kHz
Frame rate : 31.250 FPS (1536 SPF)
Bit depth : 16 bits
Compression mode : Lossy
Delay relative to video : 16 ms
Stream size : 6.26 MiB (7%)
Language : English
Service kind : Complete Main
Default : Yes
Forced : No

Text
ID : 3
Format : UTF-8
Codec ID : S_TEXT/UTF8
Codec ID/Info : UTF-8 Plain Text
Bit rate : 59 b/s
Count of elements : 67
Stream size : 2.23 KiB (0%)
Language : English
Default : Yes
Forced : Yes


Please Login / Register to view the Link

Please Login / Register to view the Link

Please Login / Register to view the Link

Please Login / Register to view the Link

Please Login / Register to view the Link

Please Login / Register to view the Link

Please Login / Register to view the Link

Please Login / Register to view the Link


SINGLE DIRECT FAST LINKS


Code: 
Please Login / Register to view the Link
https://www.heroupload.com/131fac9d59a5ad08/01-Jugraafiya_[By-DusIcTv].mkv
https://www.heroupload.com/022f1ee6f3bc39df/02-Paisa_[By-DusIcTv].mkv
https://www.heroupload.com/069dd986575a4b56/03-Question_Mark_[By-DusIcTv].mkv
https://www.heroupload.com/286bddc7a6bf5a4c/04-Question_Mark_(2nd)_[By-DusIcTv].mkv
https://www.heroupload.com/49e699eef29bb603/05-Basanti_No_Dance_[By-DusIcTv].mkv
https://www.heroupload.com/01dbdcd61654b77b/06-Niyam_Ho_[By-DusIcTv].mkv