Enter Here To DownLoad Hindi Music Videos, Download Hindi Videos, Download Hindi video, Download Hindi video free, Download Hindi videos free, Download Hindi Songs videos
#5021847
Image

Jaya Janaki Nayaka Full Tamil Movie DVDRip x2644


Image

General
Complete name : Jaya Janaki Nayaka Full Tamil Movie DVDRip x264
Format : MPEG-4
Format profile : Base Media / Version 2
Codec ID : mp42 (isom/mp42)
File size : 1.13 GiB
Duration : 2 h 27 min
Overall bit rate mode : Variable
Overall bit rate : 1 100 kb/s
Encoded date : UTC 2018-03-09 19:42:20
Tagged date : UTC 2018-03-09 19:42:20
gsst : 0
gstd : 8841880

Video
ID : 1
Format : AVC
Format/Info : Advanced Video Codec
Format profile : [email protected]
Format settings : CABAC / 3 Ref Frames
Format settings, CABAC : Yes
Format settings, RefFrames : 3 frames
Codec ID : avc1
Codec ID/Info : Advanced Video Coding
Duration : 2 h 27 min
Bit rate : 971 kb/s
Width : 1 280 pixels
Height : 720 pixels
Display aspect ratio : 16:9
Frame rate mode : Constant
Frame rate : 24.000 FPS
Color space : YUV
Chroma subsampling : 4:2:0
Bit depth : 8 bits
Scan type : Progressive
Bits/(Pixel*Frame) : 0.044
Stream size : 1 023 MiB (88%)
Title : ISO Media file produced by Google Inc. Created on: 03/09/2018.
Encoded date : UTC 2018-03-09 19:42:20
Tagged date : UTC 2018-03-09 19:42:20
Color range : Limited
Color primaries : BT.709
Transfer characteristics : BT.709
Matrix coefficients : BT.709

Audio
ID : 2
Format : AAC
Format/Info : Advanced Audio Codec
Format profile : LC
Codec ID : mp4a-40-2
Duration : 2 h 27 min
Bit rate mode : Variable
Bit rate : 126 kb/s
Channel(s) : 2 channels
Channel positions : Front: L R
Sampling rate : 44.1 kHz
Frame rate : 43.066 FPS (1024 SPF)
Compression mode : Lossy
Stream size : 132 MiB (11%)
Title : ISO Media file produced by Google Inc. Created on: 03/09/2018.
Encoded date : UTC 2018-03-09 19:42:20
Tagged date : UTC 2018-03-09 19:42:20


Image

Image

Image
Image


Please Login / Register to view the Link

Please Login / Register to view the Link

Please Login / Register to view the Link

Please Login / Register to view the Link

Please Login / Register to view the Link

Please Login / Register to view the Link

Please Login / Register to view the Link

Please Login / Register to view the Link