Enter Here To DownLoad Hindi Music Videos, Download Hindi Videos, Download Hindi video, Download Hindi video free, Download Hindi videos free, Download Hindi Songs videos
#4664588
Image
Om Shanti Om (2007) All Songs 1080p BluRay x265 HEVC 10bit Untouched TrueHD 5.1
Image


Code: 
Please Login / Register to view the Link
General
Format                                   : Matroska
Format version                           : Version 4 / Version 2
File size                                : 580 MiB
Duration                                 : 9 min 29 s
Overall bit rate mode                    : Variable
Overall bit rate                         : 8 548 kb/s
Movie name                               : 07 - Deewangi Deewangi - Om Shanti Om (2007) - Shaan, Udit Narayan, Shreya Ghoshal, Sunidhi Chauhan, Rahul Saxena
Writing application                      : mkvmerge v9.7.1 ('Pandemonium') 64bit
Writing library                          : libebml v1.3.4 + libmatroska v1.4.5

Video
ID                                       : 1
Format                                   : HEVC
Format/Info                              : High Efficiency Video Coding
Format profile                           : Main 10@L4@Main
Codec ID                                 : V_MPEGH/ISO/HEVC
Duration                                 : 9 min 29 s
Bit rate                                 : 3 489 kb/s
Width                                    : 1 920 pixels
Height                                   : 816 pixels
Display aspect ratio                     : 2.35:1
Frame rate mode                          : Constant
Frame rate                               : 23.976 (24000/1001) FPS
Color space                              : YUV
Chroma subsampling                       : 4:2:0
Bit depth                                : 10 bits
Bits/(Pixel*Frame)                       : 0.093
Stream size                              : 237 MiB (41%)
Writing library                          : x265 2.2+17-a2fe29ca5c6c:[Windows][GCC 6.2.0][64 bit] 10bit
Encoding settings                        : cpuid=1173503 / frame-threads=3 / numa-pools=8 / wpp / no-pmode / no-pme / no-psnr / no-ssim / log-level=2 / input-csp=1 / input-res=1920x816 / interlace=0 / total-frames=13656 / level-idc=0 / high-tier=1 / uhd-bd=0 / ref=4 / no-allow-non-conformance / no-repeat-headers / annexb / no-aud / no-hrd / info / hash=0 / no-temporal-layers / open-gop / min-keyint=23 / keyint=250 / bframes=4 / b-adapt=2 / b-pyramid / bframe-bias=0 / rc-lookahead=25 / lookahead-slices=4 / scenecut=40 / no-intra-refresh / ctu=64 / min-cu-size=8 / rect / no-amp / max-tu-size=32 / tu-inter-depth=1 / tu-intra-depth=1 / limit-tu=0 / rdoq-level=2 / signhide / no-tskip / nr-intra=0 / nr-inter=0 / no-constrained-intra / strong-intra-smoothing / max-merge=3 / limit-refs=2 / limit-modes / me=3 / subme=3 / merange=57 / temporal-mvp / weightp / no-weightb / no-analyze-src-pics / deblock=0:0 / sao / no-sao-non-deblock / rd=4 / no-early-skip / rskip / no-fast-intra / no-tskip-fast / no-cu-lossless / no-b-intra / rdpenalty=0 / psy-rd=0.00 / psy-rdoq=0.00 / no-rd-refine / analysis-mode=0 / no-lossless / cbqpoffs=0 / crqpoffs=0 / rc=abr / bitrate=3493 / qcomp=0.60 / qpstep=4 / stats-write=0 / stats-read=2 / cplxblur=20.0 / qblur=0.5 / ipratio=1.40 / pbratio=1.30 / aq-mode=3 / aq-strength=1.00 / cutree / zone-count=0 / no-strict-cbr / qg-size=32 / no-rc-grain / qpmax=69 / qpmin=0 / sar=0 / overscan=0 / videoformat=5 / range=0 / colorprim=2 / transfer=2 / colormatrix=2 / chromaloc=0 / display-window=0 / max-cll=0,0 / min-luma=0 / max-luma=1023 / log2-max-poc-lsb=8 / vui-timing-info / vui-hrd-info / slices=1 / opt-qp-pps / opt-ref-list-length-pps / no-multi-pass-opt-rps / scenecut-bias=0.05 / no-opt-cu-delta-qp / no-aq-motion
Language                                 : Hindi
Default                                  : Yes
Forced                                   : No

Audio
ID                                       : 2
Format                                   : TrueHD
Codec ID                                 : A_TRUEHD
Duration                                 : 9 min 29 s
Bit rate mode                            : Variable
Bit rate                                 : 4 624 kb/s
Maximum bit rate                         : 5 643 kb/s
Channel(s)                               : 6 channels
Channel positions                        : Front: L C R, Side: L R, LFE
Sampling rate                            : 48.0 kHz
Frame rate                               : 1 200.000 FPS (40 spf)
Compression mode                         : Lossless
Stream size                              : 314 MiB (54%)
Language                                 : Hindi
Default                                  : No
Forced                                   : No

Text
ID                                       : 3
Format                                   : PGS
Muxing mode                              : zlib
Codec ID                                 : S_HDMV/PGS
Codec ID/Info                            : Picture based subtitle format used on BDs/HD-DVDs
Duration                                 : 8 min 44 s
Bit rate                                 : 396 kb/s
Count of elements                        : 2597
Stream size                              : 24.8 MiB (4%)
Language                                 : English
Default                                  : No
Forced                                   : No

ImageImageImageImageImageImageImageImageImage


Image

Code: 
Please Login / Register to view the Link
http://rapidpaid.com/8ff3ba4dd70051f8/01_-_Om_Shanti_Om_-_Om_Shanti_Om_(2007).mkv
http://rapidpaid.com/03460366ffb2ec8f/02_-_Ajab_Si_-_Om_Shanti_Om_(2007)_-_K.K..mkv
http://rapidpaid.com/7a26584074badf31/03_-_Dhoom_Taana_-_Om_Shanti_Om_(2007)_-_Abhijeet_Bhattacharya,_Shreya_Ghoshal.mkv
http://rapidpaid.com/9ef287662510ab15/04_-_Main_Agar_Kahoon_-_Om_Shanti_Om_(2007)_-_Sonu_Nigam,_Shreya_Ghoshal.mkv
http://rapidpaid.com/8fc09ba5178313fc/05_-_Jag_Soona_Soona_Lage_-_Om_Shanti_Om_(2007)_-_Rahat_Fateh_Ali_Khan,_Richa_Sharma.mkv
http://rapidpaid.com/ecdd403861f4855f/06_-_Dard-e-Disco_-_Om_Shanti_Om_(2007)_-_Sukhwinder_Singh,_Caralisa_Monteiro,_Nisha,_Marianne.mkv
http://rapidpaid.com/ab9beea71ebbbe53/07_-_Deewangi_Deewangi_-_Om_Shanti_Om_(2007)_-_Shaan,_Udit_Narayan,_Shreya_Ghoshal,_Sunidhi_Chauhan,_Rahul_Saxena.mkv
http://rapidpaid.com/f502107331a60ed6/08_-_Dastaan-E-Om_Shanti_Om_-_Om_Shanti_Om_(2007)_-_Shaan.mkv
http://rapidpaid.com/edd330964d505c3a/09_-_Dard-e-Disco_(Remix)_-_Om_Shanti_Om_(2007)_-_Sukhwinder_Singh,_Caralisa_Monteiro,_Nisha,_Marianne.mkv


Image
By Advertisement Bot
#...?