Enter Here To DownLoad Bangla Moviez
#5529501
Pornomochi (2018) Bengali Movie - 1CD -
HDRip[Mp4 - AAC3(5.1Ch)]

Image
Image
Image

[code]
General
Format : MPEG-4
Format profile : Base Media
Codec ID : isom (isom)
File size : 700 MiB
Duration : 2 h 16 min

Video
ID : 1
Format : AVC
Format/Info : Advanced Video Codec
Format profile : High@L2.1
Format settings : CABAC / 4 Ref Frames
Format settings, CABAC : Yes
Format settings, RefFrames : 4 frames
Codec ID : avc1
Codec ID/Info : Advanced Video Coding
Duration : 2 h 16 min
Bit rate : 587 kb/s
Maximum bit rate : 2 394 kb/s
Width : 640 pixels
Height : 272 pixels
Display aspect ratio : 2.35:1
Frame rate mode : Constant
Frame rate : 25.000 FPS
Color space : YUV
Chroma subsampling : 4:2:0
Bit depth : 8 bits
Scan type : Progressive
Bits/(Pixel*Frame) : 0.135
Stream size : 572 MiB (82%)

Audio
ID : 2
Format : AAC LC SBR
Commercial name : HE-AAC
Format settings : Explicit
Codec ID : mp4a-40-2
Duration : 2 h 16 min
Bit rate mode : Variable
Bit rate : 128 kb/s
Maximum bit rate : 137 kb/s
Channel(s) : 6 channels
Channel layout : C L R Ls Rs LFE
Sampling rate : 48.0 kHz
Stream size : 125 MiB (18%)
[/code
Thumbnail
Image
Image
Image

Image
Please Login / Register to view the Link

Please Login / Register to view the Link

Please Login / Register to view the Link

Please Login / Register to view the Link