Enter Here To DownLoad Bangla Moviez
#5483945
Eken Babu2 SEASONS 2 (2018 - Ep1 To Ep6 ) - 1CD -
Bengali Web Series Rip[Mp4 - AAC3(5.1Ch)]

Image
Image
Image
Code: 
Please Login / Register to view the Link
General
Format                                   : MPEG-4
Format profile                           : Base Media
Codec ID                                 : isom (isom)
File size                                : 700 MiB
Duration                                 : 2 h 39 min

Video
ID                                       : 1
Format                                   : AVC
Format/Info                              : Advanced Video Codec
Format profile                           : High@L3
Format settings                          : CABAC / 4 Ref Frames
Format settings, CABAC                   : Yes
Format settings, RefFrames               : 4 frames
Codec ID                                 : avc1
Codec ID/Info                            : Advanced Video Coding
Duration                                 : 2 h 39 min
Bit rate                                 : 547 kb/s
Maximum bit rate                         : 2 050 kb/s
Width                                    : 640 pixels
Height                                   : 360 pixels
Display aspect ratio                     : 16:9
Frame rate mode                          : Constant
Frame rate                               : 25.000 FPS
Color space                              : YUV
Chroma subsampling                       : 4:2:0
Bit depth                                : 8 bits
Scan type                                : Progressive
Bits/(Pixel*Frame)                       : 0.095
Stream size                              : 624 MiB (89%)

Audio
ID                                       : 2
Format                                   : AAC LC SBR
Commercial name                          : HE-AAC
Format settings                          : Explicit
Codec ID                                 : mp4a-40-2
Duration                                 : 2 h 39 min
Bit rate mode                            : Variable
Bit rate                                 : 63.8 kb/s
Maximum bit rate                         : 71.1 kb/s
Channel(s)                               : 6 channels
Channel layout                           : C L R Ls Rs LFE
Stream size                              : 72.8 MiB (10%)


Thumbnail
Image
Image
Image
Image

Image
Please Login / Register to view the Link

Please Login / Register to view the Link

Please Login / Register to view the Link