Page 1 of 1

Aami Shudhu Cheyechhi Tomay (2014) - HDTVRip [Mp4 - AAC3(5.1Ch)] - 550 MB

PostPosted:25 Oct 2018, 09:48
by Uploadboy
Aami Shudhu Cheyechhi Tomay (2014) - HDTVRip
[Mp4 - AAC3(5.1Ch)] - 550 MB

Image
Image
Image
Image
Image
Code: 
Please Login / Register to view the Link
General
Format                                   : MPEG-4
Format profile                           : Base Media
Codec ID                                 : isom (isom)
File size                                : 550 MiB
Duration                                 : 2 h 34 min

Video
ID                                       : 1
Format                                   : AVC
Format/Info                              : Advanced Video Codec
Format profile                           : High@L2.1
Format settings                          : CABAC / 4 Ref Frames
Format settings, CABAC                   : Yes
Format settings, RefFrames               : 4 frames
Codec ID                                 : avc1
Codec ID/Info                            : Advanced Video Coding
Duration                                 : 2 h 34 min
Bit rate                                 : 430 kb/s
Maximum bit rate                         : 2 242 kb/s
Width                                    : 560 pixels
Height                                   : 240 pixels
Display aspect ratio                     : 2.35:1
Frame rate mode                          : Constant
Frame rate                               : 25.000 FPS
Color space                              : YUV
Chroma subsampling                       : 4:2:0
Bit depth                                : 8 bits
Scan type                                : Progressive
Bits/(Pixel*Frame)                       : 0.128
Stream size                              : 476 MiB (87%)

Audio
ID                                       : 2
Format                                   : AAC LC SBR
Commercial name                          : HE-AAC
Format settings                          : Explicit
Codec ID                                 : mp4a-40-2
Duration                                 : 2 h 34 min
Bit rate mode                            : Variable
Bit rate                                 : 63.8 kb/s
Maximum bit rate                         : 71.1 kb/s
Channel(s)                               : 6 channels
Channel layout                           : C L R Ls Rs LFE
Sampling rate                            : 48.0 kHz
Stream size                              : 70.6 MiB (13%)



Thumbnail
Image
Image

Image
Please Login / Register to view the Link

Please Login / Register to view the Link

Please Login / Register to view the Link