Enter Here To DownLoad Bangla Moviez
#5364389
SheshThekeShuru (2018) - 1CD - Bengali
Web Series Rip[x264 - AAC3(5.1Ch)]


Image
Image
Image
Code: 
Please Login / Register to view the Link
General
Format                                   : Matroska
Format version                           : Version 4 / Version 2
File size                                : 702 MiB
Duration                                 : 1 h 6 min

Video
ID                                       : 1
Format                                   : AVC
Format/Info                              : Advanced Video Codec
Format profile                           : High@L3
Format settings                          : CABAC / 4 Ref Frames
Format settings, CABAC                   : Yes
Format settings, RefFrames               : 4 frames
Codec ID                                 : V_MPEG4/ISO/AVC
Duration                                 : 1 h 6 min
Bit rate                                 : 1 334 kb/s
Width                                    : 720 pixels
Height                                   : 392 pixels
Display aspect ratio                     : 1.85:1
Frame rate mode                          : Constant
Frame rate                               : 25.000 FPS
Color space                              : YUV
Chroma subsampling                       : 4:2:0
Bit depth                                : 8 bits
Scan type                                : Progressive
Bits/(Pixel*Frame)                       : 0.189
Stream size                              : 639 MiB (91%)

Audio
ID                                       : 2
Format                                   : AAC
Format/Info                              : Advanced Audio Codec
Format profile                           : HE-AAC / LC
Format settings                          : Explicit
Codec ID                                 : A_AAC-2
Duration                                 : 1 h 6 min
Bit rate                                 : 128 kb/s
Channel(s)                               : 6 channels
Channel positions                        : Front: L C R, Side: L R, LFE
Sampling rate                            : 48.0 kHz
Stream size                              : 61.2 MiB (9%)

Thumbnail
Image
Image
Image
Image

Image
Please Login / Register to view the Link

Please Login / Register to view the Link

Please Login / Register to view the Link