Enter Here To DownLoad Bangla Moviez
#5363776
Bhalobashar Bari (2018) Bengali Movie - 2CD -
Pre DvDScrRip[Mp4 - AAC3(5.1Ch)]


Image
Image
Image
Image

Code: 
Please Login / Register to view the Link
General
Format                                   : MPEG-4
Format profile                           : Base Media
Codec ID                                 : isom (isom)
File size                                : 1.41 GiB
Duration                                 : 2 h 47 min

Video
ID                                       : 1
Format                                   : AVC
Format/Info                              : Advanced Video Codec
Format profile                           : High@L3
Format settings                          : CABAC / 4 Ref Frames
Format settings, CABAC                   : Yes
Format settings, RefFrames               : 4 frames
Codec ID                                 : avc1
Codec ID/Info                            : Advanced Video Coding
Duration                                 : 2 h 47 min
Bit rate                                 : 1 074 kb/s
Maximum bit rate                         : 2 950 kb/s
Width                                    : 720 pixels
Height                                   : 392 pixels
Display aspect ratio                     : 1.85:1
Frame rate mode                          : Constant
Frame rate                               : 25.000 FPS
Color space                              : YUV
Chroma subsampling                       : 4:2:0
Bit depth                                : 8 bits
Scan type                                : Progressive
Bits/(Pixel*Frame)                       : 0.152
Stream size                              : 1.25 GiB (89%)

Audio
ID                                       : 2
Format                                   : AAC
Format/Info                              : Advanced Audio Codec
Format profile                           : HE-AAC / LC
Format settings                          : Explicit
Codec ID                                 : mp4a-40-2
Duration                                 : 2 h 47 min
Bit rate mode                            : Variable
Bit rate                                 : 128 kb/s
Maximum bit rate                         : 137 kb/s
Channel(s)                               : 6 channels
Channel positions                        : Front: L C R, Side: L R, LFE
Sampling rate                            : 48.0 kHz
Stream size                              : 153 MiB (11%)


Thumbnail
Image
Image
Image
Image

Image
Please Login / Register to view the Link

Please Login / Register to view the Link

Please Login / Register to view the Link