Enter Here To DownLoad Bangla Moviez
#5169642
Image


Herogiri 2015 Bangla Movie 720p DVDRip x264 MP4


Image


General
Complete name : Herogiri 2015 Bangla Movie 720p DVDRip x264 MP4.mp4
Format : MPEG-4
Format profile : Base Media / Version 2
Codec ID : mp42 (isom/mp42)
File size : 945 MiB
Duration : 2 h 6 min
Overall bit rate mode : Variable
Overall bit rate : 1 044 kb/s
Encoded date : UTC 2018-03-02 11:00:16
Tagged date : UTC 2018-03-02 11:00:16
gsst : 0
gstd : 7598080
Video
ID : 1
Format : AVC
Format/Info : Advanced Video Codec
Format profile : Main@L3.1
Format settings : CABAC / 3 Ref Frames
Format settings, CABAC : Yes
Format settings, RefFrames : 3 frames
Codec ID : avc1
Codec ID/Info : Advanced Video Coding
Duration : 2 h 6 min
Bit rate : 915 kb/s
Width : 1 280 pixels
Height : 544 pixels
Display aspect ratio : 2.35:1
Frame rate mode : Constant
Frame rate : 25.000 FPS
Color space : YUV
Chroma subsampling : 4:2:0
Bit depth : 8 bits
Scan type : Progressive
Bits/(Pixel*Frame) : 0.053
Stream size : 828 MiB (88%)
Title : ISO Media file produced by Google Inc. Created on: 03/02/2018.
Encoded date : UTC 2018-03-02 11:00:16
Tagged date : UTC 2018-03-02 11:00:16
Color range : Limited
Color primaries : BT.709
Transfer characteristics : BT.709
Matrix coefficients : BT.709
Audio
ID : 2
Format : AAC
Format/Info : Advanced Audio Codec
Format profile : LC
Codec ID : mp4a-40-2
Duration : 2 h 6 min
Bit rate mode : Variable
Bit rate : 126 kb/s
Channel(s) : 2 channels
Channel positions : Front: L R
Sampling rate : 44.1 kHz
Frame rate : 43.066 FPS (1024 SPF)
Compression mode : Lossy
Stream size : 114 MiB (12%)
Title : ISO Media file produced by Google Inc. Created on: 03/02/2018.
Encoded date : UTC 2018-03-02 11:00:16
Tagged date : UTC 2018-03-02 11:00:16



Image


Image


Image


Image



Please Login / Register to view the Link
 - 
Please Login / Register to view the Link
 - 
Please Login / Register to view the Link
 - 
Please Login / Register to view the Link