Enter Here To DownLoad Bangla Moviez
#5167280
Image

Paglu 2011 Bangla Movie 720p DVDRip x264 MP4


Image

General
Complete name : Paglu 2011 Bangla Movie 720p DVDRip x264 MP4.MP4
Format : MPEG-4
Format profile : Base Media / Version 2
Codec ID : mp42 (isom/mp42)
File size : 1.39 GiB
Duration : 2 h 30 min
Overall bit rate mode : Variable
Overall bit rate : 1 319 kb/s
Encoded date : UTC 2017-08-22 10:40:25
Tagged date : UTC 2017-08-22 10:40:25
gsst : 0
gstd : 9030890
Video
ID : 1
Format : AVC
Format/Info : Advanced Video Codec
Format profile : Main@L3.1
Format settings : CABAC / 3 Ref Frames
Format settings, CABAC : Yes
Format settings, RefFrames : 3 frames
Codec ID : avc1
Codec ID/Info : Advanced Video Coding
Duration : 2 h 30 min
Bit rate : 1 190 kb/s
Width : 1 280 pixels
Height : 720 pixels
Display aspect ratio : 16:9
Frame rate mode : Constant
Frame rate : 25.000 FPS
Color space : YUV
Chroma subsampling : 4:2:0
Bit depth : 8 bits
Scan type : Progressive
Bits/(Pixel*Frame) : 0.052
Stream size : 1.25 GiB (90%)
Title : ISO Media file produced by Google Inc.
Encoded date : UTC 2017-08-22 10:40:25
Tagged date : UTC 2017-08-22 10:40:25
Color range : Limited
Color primaries : BT.709
Transfer characteristics : BT.709
Matrix coefficients : BT.709
Audio
ID : 2
Format : AAC
Format/Info : Advanced Audio Codec
Format profile : LC
Codec ID : mp4a-40-2
Duration : 2 h 30 min
Bit rate mode : Variable
Bit rate : 126 kb/s
Channel(s) : 2 channels
Channel positions : Front: L R
Sampling rate : 44.1 kHz
Frame rate : 43.066 FPS (1024 SPF)
Compression mode : Lossy
Stream size : 135 MiB (10%)
Title : ISO Media file produced by Google Inc.
Encoded date : UTC 2017-08-22 10:40:25
Tagged date : UTC 2017-08-22 10:40:25


Image

Image

Image

Image


Please Login / Register to view the Link
 - 
Please Login / Register to view the Link
 - 
Please Login / Register to view the Link
 - 
Please Login / Register to view the Link