Page 1 of 1

Jhoot Bole Kawa Kaate (Bengali Movie) - 2CD - HD Rip[Mp4 - AAC3(2Ch)]

PostPosted:02 Jan 2018, 00:11
by Movie Factory
Jhoot Bole Kawa Kaate (Bengali Movie) - 2CD -
HD Rip[Mp4 - AAC3(2Ch)]

Image
Image
Code: 
Please Login / Register to view the Link
General
Format                                   : MPEG-4
Format profile                           : Base Media / Version 2
Codec ID                                 : mp42 (mp42/isom/avc1)
File size                                : 1.40 GiB
Duration                                 : 2 h 36 min

Video
ID                                       : 2
Format                                   : AVC
Format/Info                              : Advanced Video Codec
Format profile                           : High@L3
Format settings                          : CABAC / 5 Ref Frames
Format settings, CABAC                   : Yes
Format settings, RefFrames               : 5 frames
Codec ID                                 : avc1
Codec ID/Info                            : Advanced Video Coding
Duration                                 : 2 h 36 min
Bit rate mode                            : Variable
Bit rate                                 : 1 153 kb/s
Maximum bit rate                         : 8 200 kb/s
Width                                    : 720 pixels
Height                                   : 576 pixels
Display aspect ratio                     : 16:9
Frame rate mode                          : Constant
Frame rate                               : 25.000 FPS
Standard                                 : PAL
Color space                              : YUV
Chroma subsampling                       : 4:2:0
Bit depth                                : 8 bits
Scan type                                : Progressive
Bits/(Pixel*Frame)                       : 0.111
Stream size                              : 1.26 GiB (90%)

Audio
ID                                       : 1
Format                                   : AAC
Format/Info                              : Advanced Audio Codec
Format profile                           : LC
Codec ID                                 : mp4a-40-2
Duration                                 : 2 h 36 min
Bit rate mode                            : Variable
Bit rate                                 : 125 kb/s
Maximum bit rate                         : 576 kb/s
Channel(s)                               : 2 channels
Channel positions                        : Front: L R
Sampling rate                            : 48.0 kHz
Frame rate                               : 46.875 FPS (1024 SPF)
Compression mode                         : Lossy
Stream size                              : 140 MiB (10%)


Thumbnail
Image
Image
Image
Image

Image
LINKS ARE INTERCHANGEABLE

Please Login / Register to view the Link

Please Login / Register to view the Link

OR
Please Login / Register to view the Link

Please Login / Register to view the Link

OR
Please Login / Register to view the Link

Please Login / Register to view the Link

মাদারীপুর হতে

PostPosted:07 Jan 2018, 17:39
by rana madaripur
ইনতেহা ইউনানীর মুভি গুলো নিঃসন্দেঞে ভালো প্রিন্ট এবং এইস.ডি রেজুলেশনের। কিন্ত প্রা 1450 - 1500 MB এবং দুই পার্ট করে দেয়ার ফলে অনেকেই আপনাদের মুভি গুলো দেখা হতে আগ্রহ হারিয়ে ফেলে। ফল সরুপ আপনাদের প্রতিদন্দি কোম্পানির বিজ্ঞাপন সংবলিত মুভি গুলোর সাইজ কম হওয়ায় দর্শক আদের মুভি দেখতে এবং ডাউনলোড করে থাকে, যার জন্য হয়তো তাদের পন্যের প্রচার ভালো হয়। কতৃপক্ষ বিষয়টি ভেবে দেথবেন।
পিকচার কোয়ালিটি ঠিক রেখে মুভির ফাইল সাইজ কমানোর বহু সফটওয়্যার আছে। অনলাইন পাবলিশের জন্য সেগুলো ব্যাবহার করে দেখতে পারেন।

আপনাদের মঙ্গল কামনায়
জায়িম ভুইয়া
মাদারীপুর
01712-811118

মাদারীপুর হতে

PostPosted:07 Jan 2018, 17:40
by rana madaripur
ইনতেহা ইউনানীর মুভি গুলো নিঃসন্দেঞে ভালো প্রিন্ট এবং এইস.ডি রেজুলেশনের। কিন্ত প্রা 1450 - 1500 MB এবং দুই পার্ট করে দেয়ার ফলে অনেকেই আপনাদের মুভি গুলো দেখা হতে আগ্রহ হারিয়ে ফেলে। ফল সরুপ আপনাদের প্রতিদন্দি কোম্পানির বিজ্ঞাপন সংবলিত মুভি গুলোর সাইজ কম হওয়ায় দর্শক আদের মুভি দেখতে এবং ডাউনলোড করে থাকে, যার জন্য হয়তো তাদের পন্যের প্রচার ভালো হয়। কতৃপক্ষ বিষয়টি ভেবে দেথবেন।
পিকচার কোয়ালিটি ঠিক রেখে মুভির ফাইল সাইজ কমানোর বহু সফটওয়্যার আছে। অনলাইন পাবলিশের জন্য সেগুলো ব্যাবহার করে দেখতে পারেন।

আপনাদের মঙ্গল কামনায়
জায়িম ভুইয়া
মাদারীপুর
01712-811118