Page 1 of 1

RAKTER DAAG (Bengali) - 1CD - Web Series Rip[Mp4 - AAC3(2Ch)]

PostPosted:29 Dec 2017, 01:28
by Movie Factory
RAKTER DAAG (Bengali) - 1CD -
Web Series Rip[Mp4 - AAC3(2Ch)]


Image
Image
Image
Code: 
Please Login / Register to view the Link
General
Format                                   : MPEG-4
Format profile                           : Base Media / Version 2
Codec ID                                 : mp42 (mp42/isom/avc1)
File size                                : 701 MiB
Duration                                 : 2 h 2 min
Overall bit rate mode                    : Variable

Video
ID                                       : 2
Format                                   : AVC
Format/Info                              : Advanced Video Codec
Format profile                           : High@L3
Format settings                          : CABAC / 5 Ref Frames
Format settings, CABAC                   : Yes
Format settings, RefFrames               : 5 frames
Codec ID                                 : avc1
Codec ID/Info                            : Advanced Video Coding
Duration                                 : 2 h 2 min
Bit rate mode                            : Variable
Bit rate                                 : 670 kb/s
Maximum bit rate                         : 8 200 kb/s
Width                                    : 720 pixels
Height                                   : 576 pixels
Display aspect ratio                     : 16:9
Frame rate mode                          : Constant
Frame rate                               : 25.000 FPS
Standard                                 : PAL
Color space                              : YUV
Chroma subsampling                       : 4:2:0
Bit depth                                : 8 bits
Scan type                                : Progressive
Bits/(Pixel*Frame)                       : 0.065
Stream size                              : 588 MiB (84%)

Audio
ID                                       : 1
Format                                   : AAC
Format/Info                              : Advanced Audio Codec
Format profile                           : LC
Codec ID                                 : mp4a-40-2
Duration                                 : 2 h 2 min
Bit rate mode                            : Variable
Bit rate                                 : 125 kb/s
Maximum bit rate                         : 576 kb/s
Channel(s)                               : 2 channels
Channel positions                        : Front: L R
Sampling rate                            : 48.0 kHz
Stream size                              : 110 MiB (16%)

Thumbnail
Image
Image
Image
Image

Image
Please Login / Register to view the Link

Please Login / Register to view the Link

Please Login / Register to view the Link